Stardom 10th Anniversary Grand Final 2021 10 09 Replay

Stardom 10th Anniversary Grand Final Osaka Dream Cinderella 2021 10 09 Replay DX-TV

Stardom 10th Anniversary

 Stardom 10th Anniversary

 

 

 

Download Links with premium High Speed
 

 


 

Dopapk

 

 

Show Links

 

 

 

 

Nitroflare

 

 

Show Links

 

 

Rapidgator

 

 

Show Links

 

 

 

Uploaded
 

 

 

Show Links

 

 

 

 

 

Watch online

 

Server 1

 

 

 

 

watch now

 

 

 

 

Server-2

 

 

 

 

Stardom 10th Anniversary

 

 

 

|Server-3

 

 

 

 

watch now

 

 

Uploaded By Site DX-TV.com

 

 

Open Info Show

 

 

Complete name : STARDOM 2021 10 09 10th Anniversary Grand Final Osaka Dream Cinderella 2021.mp4
Format : MPEG-4
Format profile : Base Media
File size : 2.46 GiB
Duration : 4 h 0 min
Overall bit rate mode : Variable
Overall bit rate : 1 469 kb/s

10th Anniversary

Video
ID : 1
Format : AVC
Duration : 4 h 0 min
Bit rate : 1 398 kb/s
Width : 1 280 pixels
Height : 720 pixels
Display aspect ratio : 16:9
Frame rate mode : Variable
Frame rate : 30.000 FPS
Minimum frame rate : 0.855 FPS
Maximum frame rate : 30.303 FPS
Standard : Component
Color space : YUV
Chroma subsampling : 4:2:0
Bit depth : 8 bits
Scan type : Progressive
Bits/(Pixel*Frame) : 0.051
Stream size : 2.34 GiB (95%)
Color range : Limited
Color primaries : BT.709
Transfer characteristics : BT.709
Matrix coefficients : BT.709
Codec configuration box : avcC

Stardom 10th Anniversary

Audio
ID : 2
Format : AAC LC SBR PS
Commercial name : HE-AACv2
Format settings : Implicit
Codec ID : mp4a-40-2
Duration : 4 h 0 min
Bit rate mode : Variable
Bit rate : 62.7 kb/s
Maximum bit rate : 64.7 kb/s
Channel(s) : 2 channels
Channel layout : C
Sampling rate : 48.0 kHz
Frame rate : 23.438 FPS (2048 SPF)
Compression mode : Lossy
Stream size : 108 MiB (4%)
Default : Yes
Alternate group : 1

Stardom 10th Anniversary

rmat : AVC
Duration : 4 h 0 min
Bit rate : 1 398 kb/s
Width : 1 280 pixels
Height : 720 pixels
Display aspect ratio : 16:9
Frame rate mode : Variable
Frame rate : 30.000 FPS
Minimum frame rate : 0.855 FPS
Maximum frame rate : 30.303 FPS
Standard : Component
Color space : YUV
Chroma subsampling : 4:2:0
Bit depth : 8 bits
Scan type : Progressive
Bits/(Pixel*Frame) : 0.051
Stream size : 2.34 GiB (95%)
Color range : Limited
Color primaries : BT.709
Transfer characteristics : BT.709
Matrix coefficients : BT.709
Codec configuration box : avcC

Stardom 10th Anniversary

Audio
ID : 2
Format : AAC LC SBR PS
Commercial name : HE-AACv2
Format settings : Implicit
Codec ID : mp4a-40-2
Duration : 4 h 0 min
Bit rate mode : Variable
Bit rate : 62.7 kb/s
Maximum bit rate : 64.7 kb/s
Channel(s) : 2 channels
Channel layout : C
Sampling rate : 48.0 kHz
Frame rate : 23.438 FPS (2048 SPF)
Compression mode : Lossy
Stream size : 108 MiB (4%)
Default : Yes
Alternate group : 1

https://dx-tv.com/

 

 

 

 

 

You May Also Like

Leave a Reply

Your email address will not be published. Required fields are marked *

This site uses Akismet to reduce spam. Learn how your comment data is processed.