Stardom 10th Anniversary 2021 01 17 Tokyo DX-TV

Stardom 10th Anniversary 2021 01 17 Tokyo DX-TV

Stardom 10th Anniversary

 Stardom 10th Anniversary

 

Download Links with premium High Speed   

 

 

dropapk.to

http://shrt10.com/lEZGm4

 

 

nitroflare.com

http://shrt10.com/r58pi

 

 

rapidgator.net

http://shrt10.com/yisXYzpC

 

 

uploaded.net

http://shrt10.com/jc1rY

 

 

 

Watch online

 

Server 1

 

 

 

 

Stardom 10th Anniversary

 

 

 

 

Server-2

 

 

 

 

watch now

 

 

Uploaded By Site DX-TV.com

 

 

Complete name : 2021.01.17.Stardom.10th.Anniversary.Tokyo.Korakuen.Hall.(Samurai.TV).mp4
Format : MPEG-4
Format profile : Base Media
Codec ID : isom
File size : 2.22 GiB
Duration : 1 h 54 min
Overall bit rate : 2 779 kb/s
Writing application : Lavf58.29.100

Stardom 10th Anniversary

Video
ID : 1
Format : AVC
Format/Info : Advanced Video
Duration : 1 h 54 min
Bit rate : 2 575 kb/s
Width : 1 280 pixels
Height : 720 pixels
Display aspect ratio : 16:9
Frame rate mode : Constant
Frame rate : 60.000 FPS
Color space : YUV
Chroma subsampling : 4:2:0
Bit depth : 8 bits
Scan type : Progressive
Bits/(Pixel*Frame) : 0.047
Stream size : 2.05 GiB (93%)
Color primaries : BT.709
Transfer characteristics : BT.709
Matrix coefficients : BT.709
Codec configuration box : avc

Stardom 10th Anniversary

Audio
ID : 2
Format : AAC LC
Format/Info : Advanced Audio
Codec ID : mp4a-40-2
Duration : 1 h 54 min
Bit rate mode : Constant
Bit rate : 192 kb/s
Channel(s) : 2 channels
Channel layout : L R
Sampling rate : 48.0 kHz
Frame rate : 46.875 FPS
Compression mode : Lossy
Stream size : 157 MiB (7%)
Default : Yes
Alternate group : 1

Stardom 10th

Audio
ID : 2
Format : AAC LC
Format/Info : Advanced Audio
Codec ID : mp4a-40-2
Duration : 1 h 54 min
Bit rate mode : Constant
Bit rate : 192 kb/s
Channel(s) : 2 channels
Channel layout : L R
Sampling rate : 48.0 kHz
Frame rate : 46.875 FPS
Compression mode : Lossy
Stream size : 157 MiB (7%)
Default : Yes
Alternate group : 1

Stardom 10th

Audio
ID : 2
Format : AAC LC
Format/Info : Advanced Audio
Codec ID : mp4a-40-2
Duration : 1 h 54 min
Bit rate mode : Constant
Bit rate : 192 kb/s
Channel(s) : 2 channels
Channel layout : L R
Sampling rate : 48.0 kHz
Frame rate : 46.875 FPS
Compression mode : Lossy
Stream size : 157 MiB (7%)
Default : Yes
Alternate group : 1

https://dx-tv.com/

You May Also Like

Leave a Reply

Your email address will not be published. Required fields are marked *

This site uses Akismet to reduce spam. Learn how your comment data is processed.