Slammiversary 2021 Full Show Free 1080p /Pre Show-Impact Wrestling Online Replay DX-TV

Contents show

Slammiversary 2021 Full Show Free

 Slammiversary 2021 Full Show Free

 

 

 

Download Links with premium High Speed


 

Dopapk

 

 

Show Links

 

http://shrt10.com/4dtbngrOA
http://shrt10.com/dbcgpp

http://shrt10.com/ZMf0i

[collapse]

 

 

Nitroflare

 

 

Show Links

 

http://shrt10.com/McSn65S
http://shrt10.com/1tZz2w5p
http://shrt10.com/ZKdg2WB

 

[collapse]

 

 

Rapidgator

 

 

Show Links

 

http://shrt10.com/yr5FkC54I
http://shrt10.com/oLRI3K
http://shrt10.com/sRt0wbNxs

 

[collapse]

 

 

Uploaded

 

 

Show Links

 

http://shrt10.com/YXrTo0N7
http://shrt10.com/JlZtmV
http://shrt10.com/sFr2UT

 

[collapse]

 

 

Watch online

 

Server 1

 

 

 

 

watch now

 

Slammiversary 2021 Full Show Free

 

 

 

 

Server-2

 

 

 

 

watch now

 

Slammiversary 2021 Full Show Free

 

 

 

|Server-3

 

 

 

 

watch now

 

watch now

 

 

Uploaded By Site DX-TV.com

 

 

Show Info This Show

Slammiversary 2021 Full Show Free

 

Complete name : iMPACT.Wrestling.Slammiversary.2021.PPV 1080p.By DX-TV.com.mp4
Format : MPEG-4
Format profile : Base Media
Codec ID : isom
File size : 4.79 GiB
Duration : 2 h 54 min
Overall bit rate : 3 940 kb/s

Video
ID : 1
Format : AVC
Format/Info : Advanced Video
Duration : 2 h 54 min
Bit rate : 3 802 kb/s
Width : 1 920 pixels
Height : 1 080 pixels
Display aspect ratio : 16:9
Frame rate mode : Constant
Frame rate : 29.970 (30000/1001) FPS
Color space : YUV
Chroma subsampling : 4:2:0
Bit depth : 8 bits
Scan type : Progressive
Bits/(Pixel*Frame) : 0.061
Stream size : 4.63 GiB (96%)
Codec configuration box : avcC

Slammiversary 2021 Full Show Free

Audio
ID : 2
Format : AAC LC
Format/Info : Advanced Audio
Codec ID : mp4a-40-2
Duration : 2 h 54 min
Bit rate mode : Constant
Bit rate : 127 kb/s
Channel(s) : 2 channels
Channel layout : L R
Sampling rate : 48.0 kHz
Frame rate : 46.875 FPS
Compression mode : Lossy
Stream size : 158 MiB (3%)
Default : Yes
Alternate group : 1

Text #1
ID : 1-CC1
Format : EIA-608
Muxing mode : SCTE 128
Muxing mode, more info : Muxed in Video #1
Duration : 2 h 54 min
Bit rate mode : Constant
Stream size : 0.00 Byte (0%)
CaptionServiceName : CC1

Slammiversary 2021 Full Show Free

Text #2
ID : 1-CC3
Format : EIA-608
Muxing mode : SCTE 128
Muxing mode, more info : Muxed in Video #1
Duration : 2 h 54 min
Bit rate mode : Constant
Stream size : 0.00 Byte (0%)
CaptionServiceName : CC3

Complete name : iMPACT.Wrestling.Slammiversary.2021.PPV 1080p By DX-TV.com.mp4
Format : MPEG-4
Format profile : Base Media
Codec ID : isom
File size : 4.79 GiB
Duration : 2 h 54 min
Overall bit rate : 3 940 kb/s

Slammiversary 2021 Full Show Free

Video
ID : 1
Format : AVC
Format/Info : Advanced Video
Duration : 2 h 54 min
Bit rate : 3 802 kb/s
Width : 1 920 pixels
Height : 1 080 pixels
Display aspect ratio : 16:9
Frame rate mode : Constant
Frame rate : 29.970 (30000/1001) FPS
Color space : YUV
Chroma subsampling : 4:2:0
Bit depth : 8 bits
Scan type : Progressive
Bits/(Pixel*Frame) : 0.061
Stream size : 4.63 GiB (96%)
Codec configuration box : avcC

Audio
ID : 2
Format : AAC LC
Format/Info : Advanced Audio
Codec ID : mp4a-40-2
Duration : 2 h 54 min
Bit rate mode : Constant
Bit rate : 127 kb/s
Channel(s) : 2 channels
Channel layout : L R
Sampling rate : 48.0 kHz
Frame rate : 46.875 FPS
Compression mode : Lossy
Stream size : 158 MiB (3%)
Default : Yes
Alternate group : 1

Slammiversary 2021 Full Show Free

Text #1
ID : 1-CC1
Format : EIA-608
Muxing mode : SCTE 128
Muxing mode, more info : Muxed in Video #1
Duration : 2 h 54 min
Bit rate mode : Constant
Stream size : 0.00 Byte (0%)
CaptionServiceName : CC1

Text #2
ID : 1-CC3
Format : EIA-608
Muxing mode : SCTE 128
Muxing mode, more info : Muxed in Video #1
Duration : 2 h 54 min
Bit rate mode : Constant
Stream size : 0.00 Byte (0%)
CaptionServiceName : CC3

Slammiversary 2021 Full Show Free

 

 

 

Complete name : iMPACT.Wrestling.Slammiversary.2021.PPV 1080p.By DX-TV.com.mp4
Format : MPEG-4
Format profile : Base Media
Codec ID : isom
File size : 4.79 GiB
Duration : 2 h 54 min
Overall bit rate : 3 940 kb/s

Video
ID : 1
Format : AVC
Format/Info : Advanced Video
Duration : 2 h 54 min
Bit rate : 3 802 kb/s
Width : 1 920 pixels
Height : 1 080 pixels
Display aspect ratio : 16:9
Frame rate mode : Constant
Frame rate : 29.970 (30000/1001) FPS
Color space : YUV
Chroma subsampling : 4:2:0
Bit depth : 8 bits
Scan type : Progressive
Bits/(Pixel*Frame) : 0.061
Stream size : 4.63 GiB (96%)
Codec configuration box : avcC

Slammiversary 2021 Full Show Free

Audio
ID : 2
Format : AAC LC
Format/Info : Advanced Audio
Codec ID : mp4a-40-2
Duration : 2 h 54 min
Bit rate mode : Constant
Bit rate : 127 kb/s
Channel(s) : 2 channels
Channel layout : L R
Sampling rate : 48.0 kHz
Frame rate : 46.875 FPS
Compression mode : Lossy
Stream size : 158 MiB (3%)
Default : Yes
Alternate group : 1

Text #1
ID : 1-CC1
Format : EIA-608
Muxing mode : SCTE 128
Muxing mode, more info : Muxed in Video #1
Duration : 2 h 54 min
Bit rate mode : Constant
Stream size : 0.00 Byte (0%)
CaptionServiceName : CC1

Slammiversary 2021 Full Show Free

Text #2
ID : 1-CC3
Format : EIA-608
Muxing mode : SCTE 128
Muxing mode, more info : Muxed in Video #1
Duration : 2 h 54 min
Bit rate mode : Constant
Stream size : 0.00 Byte (0%)
CaptionServiceName : CC3

Complete name : iMPACT.Wrestling.Slammiversary.2021.PPV 1080p By DX-TV.com.mp4
Format : MPEG-4
Format profile : Base Media
Codec ID : isom
File size : 4.79 GiB
Duration : 2 h 54 min
Overall bit rate : 3 940 kb/s

Slammiversary 2021 Full Show Free

Video
ID : 1
Format : AVC
Format/Info : Advanced Video
Duration : 2 h 54 min
Bit rate : 3 802 kb/s
Width : 1 920 pixels
Height : 1 080 pixels
Display aspect ratio : 16:9
Frame rate mode : Constant
Frame rate : 29.970 (30000/1001) FPS
Color space : YUV
Chroma subsampling : 4:2:0
Bit depth : 8 bits
Scan type : Progressive
Bits/(Pixel*Frame) : 0.061
Stream size : 4.63 GiB (96%)
Codec configuration box : avcC

Audio
ID : 2
Format : AAC LC
Format/Info : Advanced Audio
Codec ID : mp4a-40-2
Duration : 2 h 54 min
Bit rate mode : Constant
Bit rate : 127 kb/s
Channel(s) : 2 channels
Channel layout : L R
Sampling rate : 48.0 kHz
Frame rate : 46.875 FPS
Compression mode : Lossy
Stream size : 158 MiB (3%)
Default : Yes
Alternate group : 1

Slammiversary 2021 Full Show Free

Text #1
ID : 1-CC1
Format : EIA-608
Muxing mode : SCTE 128
Muxing mode, more info : Muxed in Video #1
Duration : 2 h 54 min
Bit rate mode : Constant
Stream size : 0.00 Byte (0%)
CaptionServiceName : CC1

Text #2
ID : 1-CC3
Format : EIA-608
Muxing mode : SCTE 128
Muxing mode, more info : Muxed in Video #1
Duration : 2 h 54 min
Bit rate mode : Constant
Stream size : 0.00 Byte (0%)
CaptionServiceName : CC3

Slammiversary 2021 Full Show Free

 

 

 

Complete name : iMPACT.Wrestling.Slammiversary.2021.PPV 1080p.By DX-TV.com.mp4
Format : MPEG-4
Format profile : Base Media
Codec ID : isom
File size : 4.79 GiB
Duration : 2 h 54 min
Overall bit rate : 3 940 kb/s

Video
ID : 1
Format : AVC
Format/Info : Advanced Video
Duration : 2 h 54 min
Bit rate : 3 802 kb/s
Width : 1 920 pixels
Height : 1 080 pixels
Display aspect ratio : 16:9
Frame rate mode : Constant
Frame rate : 29.970 (30000/1001) FPS
Color space : YUV
Chroma subsampling : 4:2:0
Bit depth : 8 bits
Scan type : Progressive
Bits/(Pixel*Frame) : 0.061
Stream size : 4.63 GiB (96%)
Codec configuration box : avcC

Slammiversary 2021 Full Show Free

Audio
ID : 2
Format : AAC LC
Format/Info : Advanced Audio
Codec ID : mp4a-40-2
Duration : 2 h 54 min
Bit rate mode : Constant
Bit rate : 127 kb/s
Channel(s) : 2 channels
Channel layout : L R
Sampling rate : 48.0 kHz
Frame rate : 46.875 FPS
Compression mode : Lossy
Stream size : 158 MiB (3%)
Default : Yes
Alternate group : 1

Text #1
ID : 1-CC1
Format : EIA-608
Muxing mode : SCTE 128
Muxing mode, more info : Muxed in Video #1
Duration : 2 h 54 min
Bit rate mode : Constant
Stream size : 0.00 Byte (0%)
CaptionServiceName : CC1

Slammiversary 2021 Full Show Free

Text #2
ID : 1-CC3
Format : EIA-608
Muxing mode : SCTE 128
Muxing mode, more info : Muxed in Video #1
Duration : 2 h 54 min
Bit rate mode : Constant
Stream size : 0.00 Byte (0%)
CaptionServiceName : CC3

Complete name : iMPACT.Wrestling.Slammiversary.2021.PPV 1080p By DX-TV.com.mp4
Format : MPEG-4
Format profile : Base Media
Codec ID : isom
File size : 4.79 GiB
Duration : 2 h 54 min
Overall bit rate : 3 940 kb/s

Slammiversary 2021 Full Show Free

Video
ID : 1
Format : AVC
Format/Info : Advanced Video
Duration : 2 h 54 min
Bit rate : 3 802 kb/s
Width : 1 920 pixels
Height : 1 080 pixels
Display aspect ratio : 16:9
Frame rate mode : Constant
Frame rate : 29.970 (30000/1001) FPS
Color space : YUV
Chroma subsampling : 4:2:0
Bit depth : 8 bits
Scan type : Progressive
Bits/(Pixel*Frame) : 0.061
Stream size : 4.63 GiB (96%)
Codec configuration box : avcC

Audio
ID : 2
Format : AAC LC
Format/Info : Advanced Audio
Codec ID : mp4a-40-2
Duration : 2 h 54 min
Bit rate mode : Constant
Bit rate : 127 kb/s
Channel(s) : 2 channels
Channel layout : L R
Sampling rate : 48.0 kHz
Frame rate : 46.875 FPS
Compression mode : Lossy
Stream size : 158 MiB (3%)
Default : Yes
Alternate group : 1

Slammiversary 2021 Full Show Free

Text #1
ID : 1-CC1
Format : EIA-608
Muxing mode : SCTE 128
Muxing mode, more info : Muxed in Video #1
Duration : 2 h 54 min
Bit rate mode : Constant
Stream size : 0.00 Byte (0%)
CaptionServiceName : CC1

Text #2
ID : 1-CC3
Format : EIA-608
Muxing mode : SCTE 128
Muxing mode, more info : Muxed in Video #1
Duration : 2 h 54 min
Bit rate mode : Constant
Stream size : 0.00 Byte (0%)
CaptionServiceName : CC3

Slammiversary 2021 Full Show Free

 

 

 

Complete name : iMPACT.Wrestling.Slammiversary.2021.PPV 1080p.By DX-TV.com.mp4
Format : MPEG-4
Format profile : Base Media
Codec ID : isom
File size : 4.79 GiB
Duration : 2 h 54 min
Overall bit rate : 3 940 kb/s

Video
ID : 1
Format : AVC
Format/Info : Advanced Video
Duration : 2 h 54 min
Bit rate : 3 802 kb/s
Width : 1 920 pixels
Height : 1 080 pixels
Display aspect ratio : 16:9
Frame rate mode : Constant
Frame rate : 29.970 (30000/1001) FPS
Color space : YUV
Chroma subsampling : 4:2:0
Bit depth : 8 bits
Scan type : Progressive
Bits/(Pixel*Frame) : 0.061
Stream size : 4.63 GiB (96%)
Codec configuration box : avcC

Slammiversary 2021 Full Show Free

Audio
ID : 2
Format : AAC LC
Format/Info : Advanced Audio
Codec ID : mp4a-40-2
Duration : 2 h 54 min
Bit rate mode : Constant
Bit rate : 127 kb/s
Channel(s) : 2 channels
Channel layout : L R
Sampling rate : 48.0 kHz
Frame rate : 46.875 FPS
Compression mode : Lossy
Stream size : 158 MiB (3%)
Default : Yes
Alternate group : 1

Text #1
ID : 1-CC1
Format : EIA-608
Muxing mode : SCTE 128
Muxing mode, more info : Muxed in Video #1
Duration : 2 h 54 min
Bit rate mode : Constant
Stream size : 0.00 Byte (0%)
CaptionServiceName : CC1

Slammiversary 2021 Full Show Free

Text #2
ID : 1-CC3
Format : EIA-608
Muxing mode : SCTE 128
Muxing mode, more info : Muxed in Video #1
Duration : 2 h 54 min
Bit rate mode : Constant
Stream size : 0.00 Byte (0%)
CaptionServiceName : CC3

Complete name : iMPACT.Wrestling.Slammiversary.2021.PPV 1080p By DX-TV.com.mp4
Format : MPEG-4
Format profile : Base Media
Codec ID : isom
File size : 4.79 GiB
Duration : 2 h 54 min
Overall bit rate : 3 940 kb/s

Slammiversary 2021 Full Show Free

Video
ID : 1
Format : AVC
Format/Info : Advanced Video
Duration : 2 h 54 min
Bit rate : 3 802 kb/s
Width : 1 920 pixels
Height : 1 080 pixels
Display aspect ratio : 16:9
Frame rate mode : Constant
Frame rate : 29.970 (30000/1001) FPS
Color space : YUV
Chroma subsampling : 4:2:0
Bit depth : 8 bits
Scan type : Progressive
Bits/(Pixel*Frame) : 0.061
Stream size : 4.63 GiB (96%)
Codec configuration box : avcC

Audio
ID : 2
Format : AAC LC
Format/Info : Advanced Audio
Codec ID : mp4a-40-2
Duration : 2 h 54 min
Bit rate mode : Constant
Bit rate : 127 kb/s
Channel(s) : 2 channels
Channel layout : L R
Sampling rate : 48.0 kHz
Frame rate : 46.875 FPS
Compression mode : Lossy
Stream size : 158 MiB (3%)
Default : Yes
Alternate group : 1

Slammiversary 2021 Full Show Free

Text #1
ID : 1-CC1
Format : EIA-608
Muxing mode : SCTE 128
Muxing mode, more info : Muxed in Video #1
Duration : 2 h 54 min
Bit rate mode : Constant
Stream size : 0.00 Byte (0%)
CaptionServiceName : CC1

Text #2
ID : 1-CC3
Format : EIA-608
Muxing mode : SCTE 128
Muxing mode, more info : Muxed in Video #1
Duration : 2 h 54 min
Bit rate mode : Constant
Stream size : 0.00 Byte (0%)
CaptionServiceName : CC3

Slammiversary 2021 Full Show Free

 

 

 

Complete name : iMPACT.Wrestling.Slammiversary.2021.PPV 1080p.By DX-TV.com.mp4
Format : MPEG-4
Format profile : Base Media
Codec ID : isom
File size : 4.79 GiB
Duration : 2 h 54 min
Overall bit rate : 3 940 kb/s

Video
ID : 1
Format : AVC
Format/Info : Advanced Video
Duration : 2 h 54 min
Bit rate : 3 802 kb/s
Width : 1 920 pixels
Height : 1 080 pixels
Display aspect ratio : 16:9
Frame rate mode : Constant
Frame rate : 29.970 (30000/1001) FPS
Color space : YUV
Chroma subsampling : 4:2:0
Bit depth : 8 bits
Scan type : Progressive
Bits/(Pixel*Frame) : 0.061
Stream size : 4.63 GiB (96%)
Codec configuration box : avcC

Slammiversary 2021 Full Show Free

Audio
ID : 2
Format : AAC LC
Format/Info : Advanced Audio
Codec ID : mp4a-40-2
Duration : 2 h 54 min
Bit rate mode : Constant
Bit rate : 127 kb/s
Channel(s) : 2 channels
Channel layout : L R
Sampling rate : 48.0 kHz
Frame rate : 46.875 FPS
Compression mode : Lossy
Stream size : 158 MiB (3%)
Default : Yes
Alternate group : 1

Text #1
ID : 1-CC1
Format : EIA-608
Muxing mode : SCTE 128
Muxing mode, more info : Muxed in Video #1
Duration : 2 h 54 min
Bit rate mode : Constant
Stream size : 0.00 Byte (0%)
CaptionServiceName : CC1

Slammiversary 2021 Full Show Free

Text #2
ID : 1-CC3
Format : EIA-608
Muxing mode : SCTE 128
Muxing mode, more info : Muxed in Video #1
Duration : 2 h 54 min
Bit rate mode : Constant
Stream size : 0.00 Byte (0%)
CaptionServiceName : CC3

Complete name : iMPACT.Wrestling.Slammiversary.2021.PPV 1080p By DX-TV.com.mp4
Format : MPEG-4
Format profile : Base Media
Codec ID : isom
File size : 4.79 GiB
Duration : 2 h 54 min
Overall bit rate : 3 940 kb/s

Slammiversary 2021 Full Show Free

Video
ID : 1
Format : AVC
Format/Info : Advanced Video
Duration : 2 h 54 min
Bit rate : 3 802 kb/s
Width : 1 920 pixels
Height : 1 080 pixels
Display aspect ratio : 16:9
Frame rate mode : Constant
Frame rate : 29.970 (30000/1001) FPS
Color space : YUV
Chroma subsampling : 4:2:0
Bit depth : 8 bits
Scan type : Progressive
Bits/(Pixel*Frame) : 0.061
Stream size : 4.63 GiB (96%)
Codec configuration box : avcC

Audio
ID : 2
Format : AAC LC
Format/Info : Advanced Audio
Codec ID : mp4a-40-2
Duration : 2 h 54 min
Bit rate mode : Constant
Bit rate : 127 kb/s
Channel(s) : 2 channels
Channel layout : L R
Sampling rate : 48.0 kHz
Frame rate : 46.875 FPS
Compression mode : Lossy
Stream size : 158 MiB (3%)
Default : Yes
Alternate group : 1

Slammiversary 2021 Full Show Free

Text #1
ID : 1-CC1
Format : EIA-608
Muxing mode : SCTE 128
Muxing mode, more info : Muxed in Video #1
Duration : 2 h 54 min
Bit rate mode : Constant
Stream size : 0.00 Byte (0%)
CaptionServiceName : CC1

Text #2
ID : 1-CC3
Format : EIA-608
Muxing mode : SCTE 128
Muxing mode, more info : Muxed in Video #1
Duration : 2 h 54 min
Bit rate mode : Constant
Stream size : 0.00 Byte (0%)
CaptionServiceName : CC3

Slammiversary 2021 Full Show Free

 

 

 

Complete name : iMPACT.Wrestling.Slammiversary.2021.PPV 1080p.By DX-TV.com.mp4
Format : MPEG-4
Format profile : Base Media
Codec ID : isom
File size : 4.79 GiB
Duration : 2 h 54 min
Overall bit rate : 3 940 kb/s

Video
ID : 1
Format : AVC
Format/Info : Advanced Video
Duration : 2 h 54 min
Bit rate : 3 802 kb/s
Width : 1 920 pixels
Height : 1 080 pixels
Display aspect ratio : 16:9
Frame rate mode : Constant
Frame rate : 29.970 (30000/1001) FPS
Color space : YUV
Chroma subsampling : 4:2:0
Bit depth : 8 bits
Scan type : Progressive
Bits/(Pixel*Frame) : 0.061
Stream size : 4.63 GiB (96%)
Codec configuration box : avcC

Slammiversary 2021 Full Show Free

Audio
ID : 2
Format : AAC LC
Format/Info : Advanced Audio
Codec ID : mp4a-40-2
Duration : 2 h 54 min
Bit rate mode : Constant
Bit rate : 127 kb/s
Channel(s) : 2 channels
Channel layout : L R
Sampling rate : 48.0 kHz
Frame rate : 46.875 FPS
Compression mode : Lossy
Stream size : 158 MiB (3%)
Default : Yes
Alternate group : 1

Text #1
ID : 1-CC1
Format : EIA-608
Muxing mode : SCTE 128
Muxing mode, more info : Muxed in Video #1
Duration : 2 h 54 min
Bit rate mode : Constant
Stream size : 0.00 Byte (0%)
CaptionServiceName : CC1

Slammiversary 2021 Full Show Free

Text #2
ID : 1-CC3
Format : EIA-608
Muxing mode : SCTE 128
Muxing mode, more info : Muxed in Video #1
Duration : 2 h 54 min
Bit rate mode : Constant
Stream size : 0.00 Byte (0%)
CaptionServiceName : CC3

Complete name : iMPACT.Wrestling.Slammiversary.2021.PPV 1080p By DX-TV.com.mp4
Format : MPEG-4
Format profile : Base Media
Codec ID : isom
File size : 4.79 GiB
Duration : 2 h 54 min
Overall bit rate : 3 940 kb/s

Slammiversary 2021 Full Show Free

Video
ID : 1
Format : AVC
Format/Info : Advanced Video
Duration : 2 h 54 min
Bit rate : 3 802 kb/s
Width : 1 920 pixels
Height : 1 080 pixels
Display aspect ratio : 16:9
Frame rate mode : Constant
Frame rate : 29.970 (30000/1001) FPS
Color space : YUV
Chroma subsampling : 4:2:0
Bit depth : 8 bits
Scan type : Progressive
Bits/(Pixel*Frame) : 0.061
Stream size : 4.63 GiB (96%)
Codec configuration box : avcC

Audio
ID : 2
Format : AAC LC
Format/Info : Advanced Audio
Codec ID : mp4a-40-2
Duration : 2 h 54 min
Bit rate mode : Constant
Bit rate : 127 kb/s
Channel(s) : 2 channels
Channel layout : L R
Sampling rate : 48.0 kHz
Frame rate : 46.875 FPS
Compression mode : Lossy
Stream size : 158 MiB (3%)
Default : Yes
Alternate group : 1

Slammiversary 2021 Full Show Free

Text #1
ID : 1-CC1
Format : EIA-608
Muxing mode : SCTE 128
Muxing mode, more info : Muxed in Video #1
Duration : 2 h 54 min
Bit rate mode : Constant
Stream size : 0.00 Byte (0%)
CaptionServiceName : CC1

Text #2
ID : 1-CC3
Format : EIA-608
Muxing mode : SCTE 128
Muxing mode, more info : Muxed in Video #1
Duration : 2 h 54 min
Bit rate mode : Constant
Stream size : 0.00 Byte (0%)
CaptionServiceName : CC3

Slammiversary 2021 Full Show Free

 

 

 

Complete name : iMPACT.Wrestling.Slammiversary.2021.PPV 1080p.By DX-TV.com.mp4
Format : MPEG-4
Format profile : Base Media
Codec ID : isom
File size : 4.79 GiB
Duration : 2 h 54 min
Overall bit rate : 3 940 kb/s

Video
ID : 1
Format : AVC
Format/Info : Advanced Video
Duration : 2 h 54 min
Bit rate : 3 802 kb/s
Width : 1 920 pixels
Height : 1 080 pixels
Display aspect ratio : 16:9
Frame rate mode : Constant
Frame rate : 29.970 (30000/1001) FPS
Color space : YUV
Chroma subsampling : 4:2:0
Bit depth : 8 bits
Scan type : Progressive
Bits/(Pixel*Frame) : 0.061
Stream size : 4.63 GiB (96%)
Codec configuration box : avcC

Slammiversary 2021 Full Show Free

Audio
ID : 2
Format : AAC LC
Format/Info : Advanced Audio
Codec ID : mp4a-40-2
Duration : 2 h 54 min
Bit rate mode : Constant
Bit rate : 127 kb/s
Channel(s) : 2 channels
Channel layout : L R
Sampling rate : 48.0 kHz
Frame rate : 46.875 FPS
Compression mode : Lossy
Stream size : 158 MiB (3%)
Default : Yes
Alternate group : 1

Text #1
ID : 1-CC1
Format : EIA-608
Muxing mode : SCTE 128
Muxing mode, more info : Muxed in Video #1
Duration : 2 h 54 min
Bit rate mode : Constant
Stream size : 0.00 Byte (0%)
CaptionServiceName : CC1

Slammiversary 2021 Full Show Free

Text #2
ID : 1-CC3
Format : EIA-608
Muxing mode : SCTE 128
Muxing mode, more info : Muxed in Video #1
Duration : 2 h 54 min
Bit rate mode : Constant
Stream size : 0.00 Byte (0%)
CaptionServiceName : CC3

Complete name : iMPACT.Wrestling.Slammiversary.2021.PPV 1080p By DX-TV.com.mp4
Format : MPEG-4
Format profile : Base Media
Codec ID : isom
File size : 4.79 GiB
Duration : 2 h 54 min
Overall bit rate : 3 940 kb/s

Slammiversary 2021 Full Show Free

Video
ID : 1
Format : AVC
Format/Info : Advanced Video
Duration : 2 h 54 min
Bit rate : 3 802 kb/s
Width : 1 920 pixels
Height : 1 080 pixels
Display aspect ratio : 16:9
Frame rate mode : Constant
Frame rate : 29.970 (30000/1001) FPS
Color space : YUV
Chroma subsampling : 4:2:0
Bit depth : 8 bits
Scan type : Progressive
Bits/(Pixel*Frame) : 0.061
Stream size : 4.63 GiB (96%)
Codec configuration box : avcC

Audio
ID : 2
Format : AAC LC
Format/Info : Advanced Audio
Codec ID : mp4a-40-2
Duration : 2 h 54 min
Bit rate mode : Constant
Bit rate : 127 kb/s
Channel(s) : 2 channels
Channel layout : L R
Sampling rate : 48.0 kHz
Frame rate : 46.875 FPS
Compression mode : Lossy
Stream size : 158 MiB (3%)
Default : Yes
Alternate group : 1

Slammiversary 2021 Full Show Free

Text #1
ID : 1-CC1
Format : EIA-608
Muxing mode : SCTE 128
Muxing mode, more info : Muxed in Video #1
Duration : 2 h 54 min
Bit rate mode : Constant
Stream size : 0.00 Byte (0%)
CaptionServiceName : CC1

Text #2
ID : 1-CC3
Format : EIA-608
Muxing mode : SCTE 128
Muxing mode, more info : Muxed in Video #1
Duration : 2 h 54 min
Bit rate mode : Constant
Stream size : 0.00 Byte (0%)
CaptionServiceName : CC3

Slammiversary 2021 Full Show Free

 

 

 

Complete name : iMPACT.Wrestling.Slammiversary.2021.PPV 1080p.By DX-TV.com.mp4
Format : MPEG-4
Format profile : Base Media
Codec ID : isom
File size : 4.79 GiB
Duration : 2 h 54 min
Overall bit rate : 3 940 kb/s

Video
ID : 1
Format : AVC
Format/Info : Advanced Video
Duration : 2 h 54 min
Bit rate : 3 802 kb/s
Width : 1 920 pixels
Height : 1 080 pixels
Display aspect ratio : 16:9
Frame rate mode : Constant
Frame rate : 29.970 (30000/1001) FPS
Color space : YUV
Chroma subsampling : 4:2:0
Bit depth : 8 bits
Scan type : Progressive
Bits/(Pixel*Frame) : 0.061
Stream size : 4.63 GiB (96%)
Codec configuration box : avcC

Slammiversary 2021 Full Show Free

Audio
ID : 2
Format : AAC LC
Format/Info : Advanced Audio
Codec ID : mp4a-40-2
Duration : 2 h 54 min
Bit rate mode : Constant
Bit rate : 127 kb/s
Channel(s) : 2 channels
Channel layout : L R
Sampling rate : 48.0 kHz
Frame rate : 46.875 FPS
Compression mode : Lossy
Stream size : 158 MiB (3%)
Default : Yes
Alternate group : 1

Text #1
ID : 1-CC1
Format : EIA-608
Muxing mode : SCTE 128
Muxing mode, more info : Muxed in Video #1
Duration : 2 h 54 min
Bit rate mode : Constant
Stream size : 0.00 Byte (0%)
CaptionServiceName : CC1

Slammiversary 2021 Full Show Free

Text #2
ID : 1-CC3
Format : EIA-608
Muxing mode : SCTE 128
Muxing mode, more info : Muxed in Video #1
Duration : 2 h 54 min
Bit rate mode : Constant
Stream size : 0.00 Byte (0%)
CaptionServiceName : CC3

Complete name : iMPACT.Wrestling.Slammiversary.2021.PPV 1080p By DX-TV.com.mp4
Format : MPEG-4
Format profile : Base Media
Codec ID : isom
File size : 4.79 GiB
Duration : 2 h 54 min
Overall bit rate : 3 940 kb/s

Slammiversary 2021 Full Show Free

Video
ID : 1
Format : AVC
Format/Info : Advanced Video
Duration : 2 h 54 min
Bit rate : 3 802 kb/s
Width : 1 920 pixels
Height : 1 080 pixels
Display aspect ratio : 16:9
Frame rate mode : Constant
Frame rate : 29.970 (30000/1001) FPS
Color space : YUV
Chroma subsampling : 4:2:0
Bit depth : 8 bits
Scan type : Progressive
Bits/(Pixel*Frame) : 0.061
Stream size : 4.63 GiB (96%)
Codec configuration box : avcC

Audio
ID : 2
Format : AAC LC
Format/Info : Advanced Audio
Codec ID : mp4a-40-2
Duration : 2 h 54 min
Bit rate mode : Constant
Bit rate : 127 kb/s
Channel(s) : 2 channels
Channel layout : L R
Sampling rate : 48.0 kHz
Frame rate : 46.875 FPS
Compression mode : Lossy
Stream size : 158 MiB (3%)
Default : Yes
Alternate group : 1

Slammiversary 2021 Full Show Free

Text #1
ID : 1-CC1
Format : EIA-608
Muxing mode : SCTE 128
Muxing mode, more info : Muxed in Video #1
Duration : 2 h 54 min
Bit rate mode : Constant
Stream size : 0.00 Byte (0%)
CaptionServiceName : CC1

Text #2
ID : 1-CC3
Format : EIA-608
Muxing mode : SCTE 128
Muxing mode, more info : Muxed in Video #1
Duration : 2 h 54 min
Bit rate mode : Constant
Stream size : 0.00 Byte (0%)
CaptionServiceName : CC3

Slammiversary 2021 Full Show Free

 

 

 

Complete name : iMPACT.Wrestling.Slammiversary.2021.PPV 1080p.By DX-TV.com.mp4
Format : MPEG-4
Format profile : Base Media
Codec ID : isom
File size : 4.79 GiB
Duration : 2 h 54 min
Overall bit rate : 3 940 kb/s

Video
ID : 1
Format : AVC
Format/Info : Advanced Video
Duration : 2 h 54 min
Bit rate : 3 802 kb/s
Width : 1 920 pixels
Height : 1 080 pixels
Display aspect ratio : 16:9
Frame rate mode : Constant
Frame rate : 29.970 (30000/1001) FPS
Color space : YUV
Chroma subsampling : 4:2:0
Bit depth : 8 bits
Scan type : Progressive
Bits/(Pixel*Frame) : 0.061
Stream size : 4.63 GiB (96%)
Codec configuration box : avcC

Slammiversary 2021 Full Show Free

Audio
ID : 2
Format : AAC LC
Format/Info : Advanced Audio
Codec ID : mp4a-40-2
Duration : 2 h 54 min
Bit rate mode : Constant
Bit rate : 127 kb/s
Channel(s) : 2 channels
Channel layout : L R
Sampling rate : 48.0 kHz
Frame rate : 46.875 FPS
Compression mode : Lossy
Stream size : 158 MiB (3%)
Default : Yes
Alternate group : 1

Text #1
ID : 1-CC1
Format : EIA-608
Muxing mode : SCTE 128
Muxing mode, more info : Muxed in Video #1
Duration : 2 h 54 min
Bit rate mode : Constant
Stream size : 0.00 Byte (0%)
CaptionServiceName : CC1

Slammiversary 2021 Full Show Free

Text #2
ID : 1-CC3
Format : EIA-608
Muxing mode : SCTE 128
Muxing mode, more info : Muxed in Video #1
Duration : 2 h 54 min
Bit rate mode : Constant
Stream size : 0.00 Byte (0%)
CaptionServiceName : CC3

Complete name : iMPACT.Wrestling.Slammiversary.2021.PPV 1080p By DX-TV.com.mp4
Format : MPEG-4
Format profile : Base Media
Codec ID : isom
File size : 4.79 GiB
Duration : 2 h 54 min
Overall bit rate : 3 940 kb/s

Slammiversary 2021 Full Show Free

Video
ID : 1
Format : AVC
Format/Info : Advanced Video
Duration : 2 h 54 min
Bit rate : 3 802 kb/s
Width : 1 920 pixels
Height : 1 080 pixels
Display aspect ratio : 16:9
Frame rate mode : Constant
Frame rate : 29.970 (30000/1001) FPS
Color space : YUV
Chroma subsampling : 4:2:0
Bit depth : 8 bits
Scan type : Progressive
Bits/(Pixel*Frame) : 0.061
Stream size : 4.63 GiB (96%)
Codec configuration box : avcC

Audio
ID : 2
Format : AAC LC
Format/Info : Advanced Audio
Codec ID : mp4a-40-2
Duration : 2 h 54 min
Bit rate mode : Constant
Bit rate : 127 kb/s
Channel(s) : 2 channels
Channel layout : L R
Sampling rate : 48.0 kHz
Frame rate : 46.875 FPS
Compression mode : Lossy
Stream size : 158 MiB (3%)
Default : Yes
Alternate group : 1

Slammiversary 2021 Full Show Free

Text #1
ID : 1-CC1
Format : EIA-608
Muxing mode : SCTE 128
Muxing mode, more info : Muxed in Video #1
Duration : 2 h 54 min
Bit rate mode : Constant
Stream size : 0.00 Byte (0%)
CaptionServiceName : CC1

Text #2
ID : 1-CC3
Format : EIA-608
Muxing mode : SCTE 128
Muxing mode, more info : Muxed in Video #1
Duration : 2 h 54 min
Bit rate mode : Constant
Stream size : 0.00 Byte (0%)
CaptionServiceName : CC3

Slammiversary 2021 Full Show Free

 

 

 

 

[collapse]

 

 

https://dx-tv.com/

Leave a Reply

Your email address will not be published. Required fields are marked *

This site uses Akismet to reduce spam. Learn how your comment data is processed.

Previous Post
UFC Fight Night Makhachev vs Moises

UFC Fight Night Makhachev vs Moises Prelims Free

Next Post
UFC Fight Night Makhachev vs Moises

UFC On ESPN 26 Makhachev vs Moises 1080p Free