Showtime Boxing 2020-02-08 HDTV 1080i

Showtime Boxing 2020-02-08 HDTV 1080i DX-TV

 

 

 

 Boxing

 

 

 

 

Showtime Boxing 2020-02-08 HDTV 1080i

 

 

 

 

 

Complete name : Showtime Championship Boxing 02-08-2020 HDTV 1080i M2TS AC-3.M2TS
Format : MPEG-TS
File size : 18.6 GiB
Duration : 3 h 38 min
Overall bit rate mode : Variable
Overall bit rate : 12.2 Mb/s
Maximum Overall bit rate : 27.0 Mb/s

Video
Format : AVC
Codec ID : 27
Duration : 3 h 38 min
Bit rate : 10.9 Mb/s
Width : 1 920 pixels
Height : 1 080 pixels
Display aspect ratio : 16:9
Frame rate : 29.970 (30000/1001) FPS
Color space : YUV
Chroma subsampling : 4:2:0
Bit depth : 8 bits
Scan type : MBAFF
Scan order : Top Field First
Bits/(Pixel*Frame) : 0.175
Stream size : 16.7 GiB (90%)

Audio
Format : AC-3
Codec ID : 129
Duration : 3 h 38 min
Bit rate mode : Constant
Bit rate : 640 kb/s
Channel(s) : 6 channels
Channel layout : L R C LFE Ls Rs
Sampling rate : 48.0 kHz
Frame rate : 31.250 FPS (1536 SPF)
Compression mode : Lossy
Delay relative to video : -1 ms
Stream size : 1 002 MiB (5%)
Service kind : Complete Main

 

Watch online

 

Server 1

 

 

 

 

 

 

 

 

 

 

 

Server 2

 

 

 

 

 

 

 

 

 

 

Server–3

 

 

 

 

 

 

 

 

 

Showtime Boxing 2020-02-08 HDTV 1080i

 

 

 

Uploaded By Site DX-TV.com

 

 

 

 

 

1fichier.com 

https://shrt10.com/sKazx2J2
https://shrt10.com/4Fjsb
https://shrt10.com/1apcvW3C
https://shrt10.com/6CYRN4o

 

earn4files.com

https://shrt10.com/hLogai
https://shrt10.com/R22GuBiI
https://shrt10.com/ky7i5
https://shrt10.com/Y0nhjsX9J

rockfile.co

 

 

 

Download with premium account Links 

 

 

 

rapidgator.net

 

 

uploadgig.com

 

 

 

dx-tv.com

 

WE need Staff/ Uploader/ Capper best quality For DX-TV
For More INFO Send PM for Admin on Email : [email protected]

X