SEAdLINNNG Nanae Takahashi 25th Anniversary 2021 Free

SEAdLINNNG Nanae Takahashi 25th Anniversary 2021 07 11 Show Online Free Replay DX-TV

Contents show

SEAdLINNNG

 SEAdLINNNG

 

 

 

Download Links with High Speed


 

Dopapk

 

 

Show Links

 

http://shrt10.com/2Hdtc

 

[collapse]

 

 

Nitroflare

 

 

Show Links

 

http://shrt10.com/IyrjmZZ

 

[collapse]

 

 

Rapidgator

 

 

Show Links

 

http://shrt10.com/NzUHrD5zd

 

[collapse]

 

 

Uploaded

 

 

Show Links

 

http://shrt10.com/9GDsYx

 

[collapse]

 

 

Watch online

 

Server 1

 

 

 

 

SEAdLINNNG

 

 

 

 

Server-2

 

 

 

 

watch now

 

 

 

|Server-3

 

 

 

 

watch now

 

 

Uploaded By Site DX-TV.com

 

 

Show Info This Show

SEAdLINNNG

 

Complete name : 2021.07.11.SEAdLINNNG.Nanae.Takahashi.25th.Anniversary.Show.(Samurai.TV).mp4
Format : MPEG-4
Format profile : Base Media
Codec ID : isom
File size : 2.22 GiB
Duration : 1 h 54 min
Overall bit rate : 2 784 kb/s

Video
ID : 1
Format : AVC
Format/Info : Advanced Video
Duration : 1 h 54 min
Bit rate : 2 579 kb/s
Width : 1 280 pixels
Height : 720 pixels
Display aspect ratio : 16:9
Frame rate mode : Constant
Frame rate : 60.000 FPS
Color space : YUV
Chroma subsampling : 4:2:0
Bit depth : 8 bits
Scan type : Progressive
Bits/(Pixel*Frame) : 0.047
Stream size : 2.06 GiB (93%)
Color primaries : BT.709
Transfer characteristics : BT.709
Matrix coefficients : BT.709
Codec configuration box : avc

SEAdLINNNG

Audio
ID : 2
Format : AAC LC
Format/Info : Advanced Audi
Codec ID : mp4a-40-2
Duration : 1 h 54 min
Bit rate mode : Constant
Bit rate : 192 kb/s
Channel(s) : 2 channels
Channel layout : L R
Sampling rate : 48.0 kHz
Frame rate : 46.875 FPS
Compression mode : Lossy
Stream size : 157 MiB
Default : Yes
Alternate group : 1

SEAdLINNNG

 

he Tokyo Korakuen Hall was the stage from where SEAdLINNNG presented «Nanae Takahashi 25th Anniversary ☆ Arigato«, With special fights.

«Nanae Takahashi 25th Anniversary ☆ Arigato»

During the event, the 25 years of professional career of Nanae Takahashi, the president of the company, were celebrated. She showed up wrestling twice in the course of the event. In the first one, he teamed up with Momoe Nakanishi and accompanied by Kumiko Maekawa they faced Emi Sakura and Natsuki ☆ Taiyo.

SEAdLINNNG

Ryo Mizunami subdued Asuka in a fierce battle to proclaim herself the sixth holder of the SEAdLINNNG Beyond The SEA Individual Championship.

In the main event, Arisa Nakajima and Nanae Takahashi, long staunch rivals and now partners in Citrus Wild, met in a special heads-up where Nakajima was the victor.

After the fight, there was a celebration that brought together the entire squad of fighters on the ring and together with the rock group FUNKIST, they celebrated Nanae Takahashi amid the applause of the fans.

SEAdLINNNG

SEAdLINNNG «NANAE TAKAHASHI 25TH ANNIVERSARY ☆ ARIGATO», 11.07.2021

Tokyo Korakuen Hall
Attendance: 596 viewers

1. OPENINNG POP UP !: Honori Hana and Yuna Mizumori defeated Riko Kaiju and Ayame Sasamura
(9:17) with Hana’s Backdrop Suplex on Kaiju.
2. THE SCRAMBLE !: Rina Yamashita and Riko Kawahata defeated Yumiko Hotta and Makoto (9:03) with a Yamashita Lariat on Makoto.
3. 25th Anniversary Special Exhibition Match: Nanae Takahashi and Momoe Nakanishi with Kumiko Maekawa vs. Emi Sakura and Natsuki ☆ Taiyo (7:00).
4. Double Main Event I – SEAdLINNNG Beyond The SEA Singles Title: Ryo Mizunami defeated Asuka (c) (17:02) with the RED It – conquering the title
5. Double Main Event II – GO! NOW !: Arisa Nakajima defeated Nanae Takahashi (21:42) with the DXD

SEAdLINNNG

Complete name : 2021.07.11.SEAdLINNNG.Nanae.Takahashi.25th.Anniversary.Show.(Samurai.TV).mp4
Format : MPEG-4
Format profile : Base Media
Codec ID : isom
File size : 2.22 GiB
Duration : 1 h 54 min
Overall bit rate : 2 784 kb/s

Video
ID : 1
Format : AVC
Format/Info : Advanced Video
Duration : 1 h 54 min
Bit rate : 2 579 kb/s
Width : 1 280 pixels
Height : 720 pixels
Display aspect ratio : 16:9
Frame rate mode : Constant
Frame rate : 60.000 FPS
Color space : YUV
Chroma subsampling : 4:2:0
Bit depth : 8 bits
Scan type : Progressive
Bits/(Pixel*Frame) : 0.047
Stream size : 2.06 GiB (93%)
Color primaries : BT.709
Transfer characteristics : BT.709
Matrix coefficients : BT.709
Codec configuration box : avc

SEAdLINNNG

Audio
ID : 2
Format : AAC LC
Format/Info : Advanced Audi
Codec ID : mp4a-40-2
Duration : 1 h 54 min
Bit rate mode : Constant
Bit rate : 192 kb/s
Channel(s) : 2 channels
Channel layout : L R
Sampling rate : 48.0 kHz
Frame rate : 46.875 FPS
Compression mode : Lossy
Stream size : 157 MiB
Default : Yes
Alternate group : 1

SEAdLINNNG

 

he Tokyo Korakuen Hall was the stage from where SEAdLINNNG presented «Nanae Takahashi 25th Anniversary ☆ Arigato«, With special fights.

«Nanae Takahashi 25th Anniversary ☆ Arigato»

During the event, the 25 years of professional career of Nanae Takahashi, the president of the company, were celebrated. She showed up wrestling twice in the course of the event. In the first one, he teamed up with Momoe Nakanishi and accompanied by Kumiko Maekawa they faced Emi Sakura and Natsuki ☆ Taiyo.

SEAdLINNNG

Ryo Mizunami subdued Asuka in a fierce battle to proclaim herself the sixth holder of the SEAdLINNNG Beyond The SEA Individual Championship.

In the main event, Arisa Nakajima and Nanae Takahashi, long staunch rivals and now partners in Citrus Wild, met in a special heads-up where Nakajima was the victor.

After the fight, there was a celebration that brought together the entire squad of fighters on the ring and together with the rock group FUNKIST, they celebrated Nanae Takahashi amid the applause of the fans.

SEAdLINNNG

SEAdLINNNG «NANAE TAKAHASHI 25TH ANNIVERSARY ☆ ARIGATO», 11.07.2021

Tokyo Korakuen Hall
Attendance: 596 viewers

1. OPENINNG POP UP !: Honori Hana and Yuna Mizumori defeated Riko Kaiju and Ayame Sasamura
(9:17) with Hana’s Backdrop Suplex on Kaiju.
2. THE SCRAMBLE !: Rina Yamashita and Riko Kawahata defeated Yumiko Hotta and Makoto (9:03) with a Yamashita Lariat on Makoto.
3. 25th Anniversary Special Exhibition Match: Nanae Takahashi and Momoe Nakanishi with Kumiko Maekawa vs. Emi Sakura and Natsuki ☆ Taiyo (7:00).
4. Double Main Event I – SEAdLINNNG Beyond The SEA Singles Title: Ryo Mizunami defeated Asuka (c) (17:02) with the RED It – conquering the title
5. Double Main Event II – GO! NOW !: Arisa Nakajima defeated Nanae Takahashi (21:42) with the DXD

SEAdLINNNG

Complete name : 2021.07.11.SEAdLINNNG.Nanae.Takahashi.25th.Anniversary.Show.(Samurai.TV).mp4
Format : MPEG-4
Format profile : Base Media
Codec ID : isom
File size : 2.22 GiB
Duration : 1 h 54 min
Overall bit rate : 2 784 kb/s

Video
ID : 1
Format : AVC
Format/Info : Advanced Video
Duration : 1 h 54 min
Bit rate : 2 579 kb/s
Width : 1 280 pixels
Height : 720 pixels
Display aspect ratio : 16:9
Frame rate mode : Constant
Frame rate : 60.000 FPS
Color space : YUV
Chroma subsampling : 4:2:0
Bit depth : 8 bits
Scan type : Progressive
Bits/(Pixel*Frame) : 0.047
Stream size : 2.06 GiB (93%)
Color primaries : BT.709
Transfer characteristics : BT.709
Matrix coefficients : BT.709
Codec configuration box : avc

SEAdLINNNG

Audio
ID : 2
Format : AAC LC
Format/Info : Advanced Audi
Codec ID : mp4a-40-2
Duration : 1 h 54 min
Bit rate mode : Constant
Bit rate : 192 kb/s
Channel(s) : 2 channels
Channel layout : L R
Sampling rate : 48.0 kHz
Frame rate : 46.875 FPS
Compression mode : Lossy
Stream size : 157 MiB
Default : Yes
Alternate group : 1

SEAdLINNNG

 

he Tokyo Korakuen Hall was the stage from where SEAdLINNNG presented «Nanae Takahashi 25th Anniversary ☆ Arigato«, With special fights.

«Nanae Takahashi 25th Anniversary ☆ Arigato»

During the event, the 25 years of professional career of Nanae Takahashi, the president of the company, were celebrated. She showed up wrestling twice in the course of the event. In the first one, he teamed up with Momoe Nakanishi and accompanied by Kumiko Maekawa they faced Emi Sakura and Natsuki ☆ Taiyo.

SEAdLINNNG

Ryo Mizunami subdued Asuka in a fierce battle to proclaim herself the sixth holder of the SEAdLINNNG Beyond The SEA Individual Championship.

In the main event, Arisa Nakajima and Nanae Takahashi, long staunch rivals and now partners in Citrus Wild, met in a special heads-up where Nakajima was the victor.

After the fight, there was a celebration that brought together the entire squad of fighters on the ring and together with the rock group FUNKIST, they celebrated Nanae Takahashi amid the applause of the fans.

SEAdLINNNG

SEAdLINNNG «NANAE TAKAHASHI 25TH ANNIVERSARY ☆ ARIGATO», 11.07.2021

Tokyo Korakuen Hall
Attendance: 596 viewers

1. OPENINNG POP UP !: Honori Hana and Yuna Mizumori defeated Riko Kaiju and Ayame Sasamura
(9:17) with Hana’s Backdrop Suplex on Kaiju.
2. THE SCRAMBLE !: Rina Yamashita and Riko Kawahata defeated Yumiko Hotta and Makoto (9:03) with a Yamashita Lariat on Makoto.
3. 25th Anniversary Special Exhibition Match: Nanae Takahashi and Momoe Nakanishi with Kumiko Maekawa vs. Emi Sakura and Natsuki ☆ Taiyo (7:00).
4. Double Main Event I – SEAdLINNNG Beyond The SEA Singles Title: Ryo Mizunami defeated Asuka (c) (17:02) with the RED It – conquering the title
5. Double Main Event II – GO! NOW !: Arisa Nakajima defeated Nanae Takahashi (21:42) with the DXD

SEAdLINNNG

Complete name : 2021.07.11.SEAdLINNNG.Nanae.Takahashi.25th.Anniversary.Show.(Samurai.TV).mp4
Format : MPEG-4
Format profile : Base Media
Codec ID : isom
File size : 2.22 GiB
Duration : 1 h 54 min
Overall bit rate : 2 784 kb/s

Video
ID : 1
Format : AVC
Format/Info : Advanced Video
Duration : 1 h 54 min
Bit rate : 2 579 kb/s
Width : 1 280 pixels
Height : 720 pixels
Display aspect ratio : 16:9
Frame rate mode : Constant
Frame rate : 60.000 FPS
Color space : YUV
Chroma subsampling : 4:2:0
Bit depth : 8 bits
Scan type : Progressive
Bits/(Pixel*Frame) : 0.047
Stream size : 2.06 GiB (93%)
Color primaries : BT.709
Transfer characteristics : BT.709
Matrix coefficients : BT.709
Codec configuration box : avc

SEAdLINNNG

Audio
ID : 2
Format : AAC LC
Format/Info : Advanced Audi
Codec ID : mp4a-40-2
Duration : 1 h 54 min
Bit rate mode : Constant
Bit rate : 192 kb/s
Channel(s) : 2 channels
Channel layout : L R
Sampling rate : 48.0 kHz
Frame rate : 46.875 FPS
Compression mode : Lossy
Stream size : 157 MiB
Default : Yes
Alternate group : 1

SEAdLINNNG

 

he Tokyo Korakuen Hall was the stage from where SEAdLINNNG presented «Nanae Takahashi 25th Anniversary ☆ Arigato«, With special fights.

«Nanae Takahashi 25th Anniversary ☆ Arigato»

During the event, the 25 years of professional career of Nanae Takahashi, the president of the company, were celebrated. She showed up wrestling twice in the course of the event. In the first one, he teamed up with Momoe Nakanishi and accompanied by Kumiko Maekawa they faced Emi Sakura and Natsuki ☆ Taiyo.

SEAdLINNNG

Ryo Mizunami subdued Asuka in a fierce battle to proclaim herself the sixth holder of the SEAdLINNNG Beyond The SEA Individual Championship.

In the main event, Arisa Nakajima and Nanae Takahashi, long staunch rivals and now partners in Citrus Wild, met in a special heads-up where Nakajima was the victor.

After the fight, there was a celebration that brought together the entire squad of fighters on the ring and together with the rock group FUNKIST, they celebrated Nanae Takahashi amid the applause of the fans.

SEAdLINNNG

SEAdLINNNG «NANAE TAKAHASHI 25TH ANNIVERSARY ☆ ARIGATO», 11.07.2021

Tokyo Korakuen Hall
Attendance: 596 viewers

1. OPENINNG POP UP !: Honori Hana and Yuna Mizumori defeated Riko Kaiju and Ayame Sasamura
(9:17) with Hana’s Backdrop Suplex on Kaiju.
2. THE SCRAMBLE !: Rina Yamashita and Riko Kawahata defeated Yumiko Hotta and Makoto (9:03) with a Yamashita Lariat on Makoto.
3. 25th Anniversary Special Exhibition Match: Nanae Takahashi and Momoe Nakanishi with Kumiko Maekawa vs. Emi Sakura and Natsuki ☆ Taiyo (7:00).
4. Double Main Event I – SEAdLINNNG Beyond The SEA Singles Title: Ryo Mizunami defeated Asuka (c) (17:02) with the RED It – conquering the title
5. Double Main Event II – GO! NOW !: Arisa Nakajima defeated Nanae Takahashi (21:42) with the DXD

SEAdLINNNG

Complete name : 2021.07.11.SEAdLINNNG.Nanae.Takahashi.25th.Anniversary.Show.(Samurai.TV).mp4
Format : MPEG-4
Format profile : Base Media
Codec ID : isom
File size : 2.22 GiB
Duration : 1 h 54 min
Overall bit rate : 2 784 kb/s

Video
ID : 1
Format : AVC
Format/Info : Advanced Video
Duration : 1 h 54 min
Bit rate : 2 579 kb/s
Width : 1 280 pixels
Height : 720 pixels
Display aspect ratio : 16:9
Frame rate mode : Constant
Frame rate : 60.000 FPS
Color space : YUV
Chroma subsampling : 4:2:0
Bit depth : 8 bits
Scan type : Progressive
Bits/(Pixel*Frame) : 0.047
Stream size : 2.06 GiB (93%)
Color primaries : BT.709
Transfer characteristics : BT.709
Matrix coefficients : BT.709
Codec configuration box : avc

SEAdLINNNG

Audio
ID : 2
Format : AAC LC
Format/Info : Advanced Audi
Codec ID : mp4a-40-2
Duration : 1 h 54 min
Bit rate mode : Constant
Bit rate : 192 kb/s
Channel(s) : 2 channels
Channel layout : L R
Sampling rate : 48.0 kHz
Frame rate : 46.875 FPS
Compression mode : Lossy
Stream size : 157 MiB
Default : Yes
Alternate group : 1

SEAdLINNNG

 

he Tokyo Korakuen Hall was the stage from where SEAdLINNNG presented «Nanae Takahashi 25th Anniversary ☆ Arigato«, With special fights.

«Nanae Takahashi 25th Anniversary ☆ Arigato»

During the event, the 25 years of professional career of Nanae Takahashi, the president of the company, were celebrated. She showed up wrestling twice in the course of the event. In the first one, he teamed up with Momoe Nakanishi and accompanied by Kumiko Maekawa they faced Emi Sakura and Natsuki ☆ Taiyo.

SEAdLINNNG

Ryo Mizunami subdued Asuka in a fierce battle to proclaim herself the sixth holder of the SEAdLINNNG Beyond The SEA Individual Championship.

In the main event, Arisa Nakajima and Nanae Takahashi, long staunch rivals and now partners in Citrus Wild, met in a special heads-up where Nakajima was the victor.

After the fight, there was a celebration that brought together the entire squad of fighters on the ring and together with the rock group FUNKIST, they celebrated Nanae Takahashi amid the applause of the fans.

SEAdLINNNG

SEAdLINNNG «NANAE TAKAHASHI 25TH ANNIVERSARY ☆ ARIGATO», 11.07.2021

Tokyo Korakuen Hall
Attendance: 596 viewers

1. OPENINNG POP UP !: Honori Hana and Yuna Mizumori defeated Riko Kaiju and Ayame Sasamura
(9:17) with Hana’s Backdrop Suplex on Kaiju.
2. THE SCRAMBLE !: Rina Yamashita and Riko Kawahata defeated Yumiko Hotta and Makoto (9:03) with a Yamashita Lariat on Makoto.
3. 25th Anniversary Special Exhibition Match: Nanae Takahashi and Momoe Nakanishi with Kumiko Maekawa vs. Emi Sakura and Natsuki ☆ Taiyo (7:00).
4. Double Main Event I – SEAdLINNNG Beyond The SEA Singles Title: Ryo Mizunami defeated Asuka (c) (17:02) with the RED It – conquering the title
5. Double Main Event II – GO! NOW !: Arisa Nakajima defeated Nanae Takahashi (21:42) with the DXD

SEAdLINNNG

Complete name : 2021.07.11.SEAdLINNNG.Nanae.Takahashi.25th.Anniversary.Show.(Samurai.TV).mp4
Format : MPEG-4
Format profile : Base Media
Codec ID : isom
File size : 2.22 GiB
Duration : 1 h 54 min
Overall bit rate : 2 784 kb/s

Video
ID : 1
Format : AVC
Format/Info : Advanced Video
Duration : 1 h 54 min
Bit rate : 2 579 kb/s
Width : 1 280 pixels
Height : 720 pixels
Display aspect ratio : 16:9
Frame rate mode : Constant
Frame rate : 60.000 FPS
Color space : YUV
Chroma subsampling : 4:2:0
Bit depth : 8 bits
Scan type : Progressive
Bits/(Pixel*Frame) : 0.047
Stream size : 2.06 GiB (93%)
Color primaries : BT.709
Transfer characteristics : BT.709
Matrix coefficients : BT.709
Codec configuration box : avc

SEAdLINNNG

Audio
ID : 2
Format : AAC LC
Format/Info : Advanced Audi
Codec ID : mp4a-40-2
Duration : 1 h 54 min
Bit rate mode : Constant
Bit rate : 192 kb/s
Channel(s) : 2 channels
Channel layout : L R
Sampling rate : 48.0 kHz
Frame rate : 46.875 FPS
Compression mode : Lossy
Stream size : 157 MiB
Default : Yes
Alternate group : 1

SEAdLINNNG

 

he Tokyo Korakuen Hall was the stage from where SEAdLINNNG presented «Nanae Takahashi 25th Anniversary ☆ Arigato«, With special fights.

«Nanae Takahashi 25th Anniversary ☆ Arigato»

During the event, the 25 years of professional career of Nanae Takahashi, the president of the company, were celebrated. She showed up wrestling twice in the course of the event. In the first one, he teamed up with Momoe Nakanishi and accompanied by Kumiko Maekawa they faced Emi Sakura and Natsuki ☆ Taiyo.

SEAdLINNNG

Ryo Mizunami subdued Asuka in a fierce battle to proclaim herself the sixth holder of the SEAdLINNNG Beyond The SEA Individual Championship.

In the main event, Arisa Nakajima and Nanae Takahashi, long staunch rivals and now partners in Citrus Wild, met in a special heads-up where Nakajima was the victor.

After the fight, there was a celebration that brought together the entire squad of fighters on the ring and together with the rock group FUNKIST, they celebrated Nanae Takahashi amid the applause of the fans.

SEAdLINNNG

SEAdLINNNG «NANAE TAKAHASHI 25TH ANNIVERSARY ☆ ARIGATO», 11.07.2021

Tokyo Korakuen Hall
Attendance: 596 viewers

1. OPENINNG POP UP !: Honori Hana and Yuna Mizumori defeated Riko Kaiju and Ayame Sasamura
(9:17) with Hana’s Backdrop Suplex on Kaiju.
2. THE SCRAMBLE !: Rina Yamashita and Riko Kawahata defeated Yumiko Hotta and Makoto (9:03) with a Yamashita Lariat on Makoto.
3. 25th Anniversary Special Exhibition Match: Nanae Takahashi and Momoe Nakanishi with Kumiko Maekawa vs. Emi Sakura and Natsuki ☆ Taiyo (7:00).
4. Double Main Event I – SEAdLINNNG Beyond The SEA Singles Title: Ryo Mizunami defeated Asuka (c) (17:02) with the RED It – conquering the title
5. Double Main Event II – GO! NOW !: Arisa Nakajima defeated Nanae Takahashi (21:42) with the DXD

SEAdLINNNG

Complete name : 2021.07.11.SEAdLINNNG.Nanae.Takahashi.25th.Anniversary.Show.(Samurai.TV).mp4
Format : MPEG-4
Format profile : Base Media
Codec ID : isom
File size : 2.22 GiB
Duration : 1 h 54 min
Overall bit rate : 2 784 kb/s

Video
ID : 1
Format : AVC
Format/Info : Advanced Video
Duration : 1 h 54 min
Bit rate : 2 579 kb/s
Width : 1 280 pixels
Height : 720 pixels
Display aspect ratio : 16:9
Frame rate mode : Constant
Frame rate : 60.000 FPS
Color space : YUV
Chroma subsampling : 4:2:0
Bit depth : 8 bits
Scan type : Progressive
Bits/(Pixel*Frame) : 0.047
Stream size : 2.06 GiB (93%)
Color primaries : BT.709
Transfer characteristics : BT.709
Matrix coefficients : BT.709
Codec configuration box : avc

SEAdLINNNG

Audio
ID : 2
Format : AAC LC
Format/Info : Advanced Audi
Codec ID : mp4a-40-2
Duration : 1 h 54 min
Bit rate mode : Constant
Bit rate : 192 kb/s
Channel(s) : 2 channels
Channel layout : L R
Sampling rate : 48.0 kHz
Frame rate : 46.875 FPS
Compression mode : Lossy
Stream size : 157 MiB
Default : Yes
Alternate group : 1

SEAdLINNNG

 

he Tokyo Korakuen Hall was the stage from where SEAdLINNNG presented «Nanae Takahashi 25th Anniversary ☆ Arigato«, With special fights.

«Nanae Takahashi 25th Anniversary ☆ Arigato»

During the event, the 25 years of professional career of Nanae Takahashi, the president of the company, were celebrated. She showed up wrestling twice in the course of the event. In the first one, he teamed up with Momoe Nakanishi and accompanied by Kumiko Maekawa they faced Emi Sakura and Natsuki ☆ Taiyo.

SEAdLINNNG

Ryo Mizunami subdued Asuka in a fierce battle to proclaim herself the sixth holder of the SEAdLINNNG Beyond The SEA Individual Championship.

In the main event, Arisa Nakajima and Nanae Takahashi, long staunch rivals and now partners in Citrus Wild, met in a special heads-up where Nakajima was the victor.

After the fight, there was a celebration that brought together the entire squad of fighters on the ring and together with the rock group FUNKIST, they celebrated Nanae Takahashi amid the applause of the fans.

SEAdLINNNG

SEAdLINNNG «NANAE TAKAHASHI 25TH ANNIVERSARY ☆ ARIGATO», 11.07.2021

Tokyo Korakuen Hall
Attendance: 596 viewers

1. OPENINNG POP UP !: Honori Hana and Yuna Mizumori defeated Riko Kaiju and Ayame Sasamura
(9:17) with Hana’s Backdrop Suplex on Kaiju.
2. THE SCRAMBLE !: Rina Yamashita and Riko Kawahata defeated Yumiko Hotta and Makoto (9:03) with a Yamashita Lariat on Makoto.
3. 25th Anniversary Special Exhibition Match: Nanae Takahashi and Momoe Nakanishi with Kumiko Maekawa vs. Emi Sakura and Natsuki ☆ Taiyo (7:00).
4. Double Main Event I – SEAdLINNNG Beyond The SEA Singles Title: Ryo Mizunami defeated Asuka (c) (17:02) with the RED It – conquering the title
5. Double Main Event II – GO! NOW !: Arisa Nakajima defeated Nanae Takahashi (21:42) with the DXD

SEAdLINNNG

Complete name : 2021.07.11.SEAdLINNNG.Nanae.Takahashi.25th.Anniversary.Show.(Samurai.TV).mp4
Format : MPEG-4
Format profile : Base Media
Codec ID : isom
File size : 2.22 GiB
Duration : 1 h 54 min
Overall bit rate : 2 784 kb/s

Video
ID : 1
Format : AVC
Format/Info : Advanced Video
Duration : 1 h 54 min
Bit rate : 2 579 kb/s
Width : 1 280 pixels
Height : 720 pixels
Display aspect ratio : 16:9
Frame rate mode : Constant
Frame rate : 60.000 FPS
Color space : YUV
Chroma subsampling : 4:2:0
Bit depth : 8 bits
Scan type : Progressive
Bits/(Pixel*Frame) : 0.047
Stream size : 2.06 GiB (93%)
Color primaries : BT.709
Transfer characteristics : BT.709
Matrix coefficients : BT.709
Codec configuration box : avc

SEAdLINNNG

Audio
ID : 2
Format : AAC LC
Format/Info : Advanced Audi
Codec ID : mp4a-40-2
Duration : 1 h 54 min
Bit rate mode : Constant
Bit rate : 192 kb/s
Channel(s) : 2 channels
Channel layout : L R
Sampling rate : 48.0 kHz
Frame rate : 46.875 FPS
Compression mode : Lossy
Stream size : 157 MiB
Default : Yes
Alternate group : 1

SEAdLINNNG

 

he Tokyo Korakuen Hall was the stage from where SEAdLINNNG presented «Nanae Takahashi 25th Anniversary ☆ Arigato«, With special fights.

«Nanae Takahashi 25th Anniversary ☆ Arigato»

During the event, the 25 years of professional career of Nanae Takahashi, the president of the company, were celebrated. She showed up wrestling twice in the course of the event. In the first one, he teamed up with Momoe Nakanishi and accompanied by Kumiko Maekawa they faced Emi Sakura and Natsuki ☆ Taiyo.

SEAdLINNNG

Ryo Mizunami subdued Asuka in a fierce battle to proclaim herself the sixth holder of the SEAdLINNNG Beyond The SEA Individual Championship.

In the main event, Arisa Nakajima and Nanae Takahashi, long staunch rivals and now partners in Citrus Wild, met in a special heads-up where Nakajima was the victor.

After the fight, there was a celebration that brought together the entire squad of fighters on the ring and together with the rock group FUNKIST, they celebrated Nanae Takahashi amid the applause of the fans.

SEAdLINNNG

SEAdLINNNG «NANAE TAKAHASHI 25TH ANNIVERSARY ☆ ARIGATO», 11.07.2021

Tokyo Korakuen Hall
Attendance: 596 viewers

1. OPENINNG POP UP !: Honori Hana and Yuna Mizumori defeated Riko Kaiju and Ayame Sasamura
(9:17) with Hana’s Backdrop Suplex on Kaiju.
2. THE SCRAMBLE !: Rina Yamashita and Riko Kawahata defeated Yumiko Hotta and Makoto (9:03) with a Yamashita Lariat on Makoto.
3. 25th Anniversary Special Exhibition Match: Nanae Takahashi and Momoe Nakanishi with Kumiko Maekawa vs. Emi Sakura and Natsuki ☆ Taiyo (7:00).
4. Double Main Event I – SEAdLINNNG Beyond The SEA Singles Title: Ryo Mizunami defeated Asuka (c) (17:02) with the RED It – conquering the title
5. Double Main Event II – GO! NOW !: Arisa Nakajima defeated Nanae Takahashi (21:42) with the DXD

SEAdLINNNG

 

 

 

 

[collapse]

 

 

https://dx-tv.com/

Leave a Reply

Your email address will not be published. Required fields are marked *

This site uses Akismet to reduce spam. Learn how your comment data is processed.