SCI Night 2 2021 08 07 720p Online Free Replay

SCI Night 2 2021 08 07 720p Online Free Replay DX-TV

SCI

 SCI

 

 

 

Download Links with premium High Speed


 

Dopapk

 

 

Show Links

 

http://shrt10.com/2ANAz8kqE

 

[collapse]

 

 

Nitroflare

 

 

Show Links

 

http://shrt10.com/vk62PU

 

[collapse]

 

 

Rapidgator

 

 

Show Links

 

http://shrt10.com/vtjXt

 

[collapse]

 

 

Uploaded

 

 

Show Links

 

http://shrt10.com/mbQAmXmPe

 

[collapse]

 

 

Watch online

 

Server 1

 

 

 

 

SCI

 

 

 

 

Server-2

 

 

 

 

watch now

 

 

 

|Server-3

 

 

 

 

watch now

 

 

Uploaded By Site DX-TV.com

 

 

Show Info This Show

SCI

 

Complete name : SCI.2021.08.07.SCI.Night.2.720p.WEB.h264-NCMP.mp4
Format : MPEG-4
Format profile : Base Media
Codec ID : isom
File size : 2.00 GiB
Duration : 2 h 52 min
Overall bit rate : 1 668 kb/s

Video
ID : 1
Format : AVC
Format/Info : Advanced Video
Duration : 2 h 52 min
Bit rate : 1 536 kb/s
Width : 1 280 pixels
Height : 720 pixels
Display aspect ratio : 16:9
Frame rate mode : Variable
Frame rate : 29.970 (29970/1000) FPS
Minimum frame rate : 29.960 FPS
Maximum frame rate : 29.970 FPS
Color space : YUV
Chroma subsampling : 4:2:0
Bit depth : 8 bits
Scan type : Progressive
Bits/(Pixel*Frame) : 0.056
Stream size : 1.84 GiB (92%)

SCI

Audio
ID : 2
Format : AAC LC
Format/Info : Advanced Audio
Codec ID : mp4a-40-2
Duration : 2 h 52 min
Bit rate mode : Constant
Bit rate : 132 kb/s
Channel(s) : 2 channels
Channel layout : L R
Sampling rate : 48.0 kHz
Frame rate : 46.875 FPS (1024 SPF)
Compression mode : Lossy
Stream size : 160 MiB (8%)
Default : Yes
Alternate group : 1

SCI

Night 2 of the 2021 Scenic City Invitational happened live at TWE Arena in Red Bank, TN on August 7th, 2021. Here are the results:

  1. Adam Priest def. Kevin Ku
  2. Scenic City Invitational Semifinals: Alex Kane def. Jon Davis
  3. Scenic City Invitational Semifinals: AC Mack def. Jeremy Wyatt
  4. Scenic City Invitational Semifinals: Daniel Makabe def. Arik Royal
  5. Scenic City Invitational Semifinals: Daniel Garcia def. Jaden Newman
  6. Scenic City Scramble: Damyan Tangra def. Robert Martyr, Kevin Ryan, Bobby Flaco, Ashton Starr & Orion Bishop
  7. No Holds Barred Match: Logan Creed def. Tank
  8. Team Pitbull (Brett Ison, Cabana Man Dan, One Called Manders & Ron Bass Jr.) def. Merc Squad (Graham Bell, Big Beef, Hoodfoot & Eli Knight)
  9. O’Shay Edwards def. Derek Neal
  10. Scenic City Invitational Finals: AC Mack def. Alex Kane, Daniel Garcia & Daniel Makabe

SCI

Complete name : SCI.2021.08.07.SCI.Night.2.720p.WEB.h264-NCMP.mp4
Format : MPEG-4
Format profile : Base Media
Codec ID : isom
File size : 2.00 GiB
Duration : 2 h 52 min
Overall bit rate : 1 668 kb/s

Video
ID : 1
Format : AVC
Format/Info : Advanced Video
Duration : 2 h 52 min
Bit rate : 1 536 kb/s
Width : 1 280 pixels
Height : 720 pixels
Display aspect ratio : 16:9
Frame rate mode : Variable
Frame rate : 29.970 (29970/1000) FPS
Minimum frame rate : 29.960 FPS
Maximum frame rate : 29.970 FPS
Color space : YUV
Chroma subsampling : 4:2:0
Bit depth : 8 bits
Scan type : Progressive
Bits/(Pixel*Frame) : 0.056
Stream size : 1.84 GiB (92%)

SCI

Audio
ID : 2
Format : AAC LC
Format/Info : Advanced Audio
Codec ID : mp4a-40-2
Duration : 2 h 52 min
Bit rate mode : Constant
Bit rate : 132 kb/s
Channel(s) : 2 channels
Channel layout : L R
Sampling rate : 48.0 kHz
Frame rate : 46.875 FPS (1024 SPF)
Compression mode : Lossy
Stream size : 160 MiB (8%)
Default : Yes
Alternate group : 1

SCI

Night 2 of the 2021 Scenic City Invitational happened live at TWE Arena in Red Bank, TN on August 7th, 2021. Here are the results:

  1. Adam Priest def. Kevin Ku
  2. Scenic City Invitational Semifinals: Alex Kane def. Jon Davis
  3. Scenic City Invitational Semifinals: AC Mack def. Jeremy Wyatt
  4. Scenic City Invitational Semifinals: Daniel Makabe def. Arik Royal
  5. Scenic City Invitational Semifinals: Daniel Garcia def. Jaden Newman
  6. Scenic City Scramble: Damyan Tangra def. Robert Martyr, Kevin Ryan, Bobby Flaco, Ashton Starr & Orion Bishop
  7. No Holds Barred Match: Logan Creed def. Tank
  8. Team Pitbull (Brett Ison, Cabana Man Dan, One Called Manders & Ron Bass Jr.) def. Merc Squad (Graham Bell, Big Beef, Hoodfoot & Eli Knight)
  9. O’Shay Edwards def. Derek Neal
  10. Scenic City Invitational Finals: AC Mack def. Alex Kane, Daniel Garcia & Daniel Makabe

SCI

Complete name : SCI.2021.08.07.SCI.Night.2.720p.WEB.h264-NCMP.mp4
Format : MPEG-4
Format profile : Base Media
Codec ID : isom
File size : 2.00 GiB
Duration : 2 h 52 min
Overall bit rate : 1 668 kb/s

Video
ID : 1
Format : AVC
Format/Info : Advanced Video
Duration : 2 h 52 min
Bit rate : 1 536 kb/s
Width : 1 280 pixels
Height : 720 pixels
Display aspect ratio : 16:9
Frame rate mode : Variable
Frame rate : 29.970 (29970/1000) FPS
Minimum frame rate : 29.960 FPS
Maximum frame rate : 29.970 FPS
Color space : YUV
Chroma subsampling : 4:2:0
Bit depth : 8 bits
Scan type : Progressive
Bits/(Pixel*Frame) : 0.056
Stream size : 1.84 GiB (92%)

SCI

Audio
ID : 2
Format : AAC LC
Format/Info : Advanced Audio
Codec ID : mp4a-40-2
Duration : 2 h 52 min
Bit rate mode : Constant
Bit rate : 132 kb/s
Channel(s) : 2 channels
Channel layout : L R
Sampling rate : 48.0 kHz
Frame rate : 46.875 FPS (1024 SPF)
Compression mode : Lossy
Stream size : 160 MiB (8%)
Default : Yes
Alternate group : 1

SCI

Night 2 of the 2021 Scenic City Invitational happened live at TWE Arena in Red Bank, TN on August 7th, 2021. Here are the results:

  1. Adam Priest def. Kevin Ku
  2. Scenic City Invitational Semifinals: Alex Kane def. Jon Davis
  3. Scenic City Invitational Semifinals: AC Mack def. Jeremy Wyatt
  4. Scenic City Invitational Semifinals: Daniel Makabe def. Arik Royal
  5. Scenic City Invitational Semifinals: Daniel Garcia def. Jaden Newman
  6. Scenic City Scramble: Damyan Tangra def. Robert Martyr, Kevin Ryan, Bobby Flaco, Ashton Starr & Orion Bishop
  7. No Holds Barred Match: Logan Creed def. Tank
  8. Team Pitbull (Brett Ison, Cabana Man Dan, One Called Manders & Ron Bass Jr.) def. Merc Squad (Graham Bell, Big Beef, Hoodfoot & Eli Knight)
  9. O’Shay Edwards def. Derek Neal
  10. Scenic City Invitational Finals: AC Mack def. Alex Kane, Daniel Garcia & Daniel Makabe

SCI

Complete name : SCI.2021.08.07.SCI.Night.2.720p.WEB.h264-NCMP.mp4
Format : MPEG-4
Format profile : Base Media
Codec ID : isom
File size : 2.00 GiB
Duration : 2 h 52 min
Overall bit rate : 1 668 kb/s

Video
ID : 1
Format : AVC
Format/Info : Advanced Video
Duration : 2 h 52 min
Bit rate : 1 536 kb/s
Width : 1 280 pixels
Height : 720 pixels
Display aspect ratio : 16:9
Frame rate mode : Variable
Frame rate : 29.970 (29970/1000) FPS
Minimum frame rate : 29.960 FPS
Maximum frame rate : 29.970 FPS
Color space : YUV
Chroma subsampling : 4:2:0
Bit depth : 8 bits
Scan type : Progressive
Bits/(Pixel*Frame) : 0.056
Stream size : 1.84 GiB (92%)

SCI

Audio
ID : 2
Format : AAC LC
Format/Info : Advanced Audio
Codec ID : mp4a-40-2
Duration : 2 h 52 min
Bit rate mode : Constant
Bit rate : 132 kb/s
Channel(s) : 2 channels
Channel layout : L R
Sampling rate : 48.0 kHz
Frame rate : 46.875 FPS (1024 SPF)
Compression mode : Lossy
Stream size : 160 MiB (8%)
Default : Yes
Alternate group : 1

SCI

Night 2 of the 2021 Scenic City Invitational happened live at TWE Arena in Red Bank, TN on August 7th, 2021. Here are the results:

  1. Adam Priest def. Kevin Ku
  2. Scenic City Invitational Semifinals: Alex Kane def. Jon Davis
  3. Scenic City Invitational Semifinals: AC Mack def. Jeremy Wyatt
  4. Scenic City Invitational Semifinals: Daniel Makabe def. Arik Royal
  5. Scenic City Invitational Semifinals: Daniel Garcia def. Jaden Newman
  6. Scenic City Scramble: Damyan Tangra def. Robert Martyr, Kevin Ryan, Bobby Flaco, Ashton Starr & Orion Bishop
  7. No Holds Barred Match: Logan Creed def. Tank
  8. Team Pitbull (Brett Ison, Cabana Man Dan, One Called Manders & Ron Bass Jr.) def. Merc Squad (Graham Bell, Big Beef, Hoodfoot & Eli Knight)
  9. O’Shay Edwards def. Derek Neal
  10. Scenic City Invitational Finals: AC Mack def. Alex Kane, Daniel Garcia & Daniel Makabe

SCI

Complete name : SCI.2021.08.07.SCI.Night.2.720p.WEB.h264-NCMP.mp4
Format : MPEG-4
Format profile : Base Media
Codec ID : isom
File size : 2.00 GiB
Duration : 2 h 52 min
Overall bit rate : 1 668 kb/s

Video
ID : 1
Format : AVC
Format/Info : Advanced Video
Duration : 2 h 52 min
Bit rate : 1 536 kb/s
Width : 1 280 pixels
Height : 720 pixels
Display aspect ratio : 16:9
Frame rate mode : Variable
Frame rate : 29.970 (29970/1000) FPS
Minimum frame rate : 29.960 FPS
Maximum frame rate : 29.970 FPS
Color space : YUV
Chroma subsampling : 4:2:0
Bit depth : 8 bits
Scan type : Progressive
Bits/(Pixel*Frame) : 0.056
Stream size : 1.84 GiB (92%)

SCI

Audio
ID : 2
Format : AAC LC
Format/Info : Advanced Audio
Codec ID : mp4a-40-2
Duration : 2 h 52 min
Bit rate mode : Constant
Bit rate : 132 kb/s
Channel(s) : 2 channels
Channel layout : L R
Sampling rate : 48.0 kHz
Frame rate : 46.875 FPS (1024 SPF)
Compression mode : Lossy
Stream size : 160 MiB (8%)
Default : Yes
Alternate group : 1

SCI

Night 2 of the 2021 Scenic City Invitational happened live at TWE Arena in Red Bank, TN on August 7th, 2021. Here are the results:

  1. Adam Priest def. Kevin Ku
  2. Scenic City Invitational Semifinals: Alex Kane def. Jon Davis
  3. Scenic City Invitational Semifinals: AC Mack def. Jeremy Wyatt
  4. Scenic City Invitational Semifinals: Daniel Makabe def. Arik Royal
  5. Scenic City Invitational Semifinals: Daniel Garcia def. Jaden Newman
  6. Scenic City Scramble: Damyan Tangra def. Robert Martyr, Kevin Ryan, Bobby Flaco, Ashton Starr & Orion Bishop
  7. No Holds Barred Match: Logan Creed def. Tank
  8. Team Pitbull (Brett Ison, Cabana Man Dan, One Called Manders & Ron Bass Jr.) def. Merc Squad (Graham Bell, Big Beef, Hoodfoot & Eli Knight)
  9. O’Shay Edwards def. Derek Neal
  10. Scenic City Invitational Finals: AC Mack def. Alex Kane, Daniel Garcia & Daniel Makabe

SCI

Complete name : SCI.2021.08.07.SCI.Night.2.720p.WEB.h264-NCMP.mp4
Format : MPEG-4
Format profile : Base Media
Codec ID : isom
File size : 2.00 GiB
Duration : 2 h 52 min
Overall bit rate : 1 668 kb/s

Video
ID : 1
Format : AVC
Format/Info : Advanced Video
Duration : 2 h 52 min
Bit rate : 1 536 kb/s
Width : 1 280 pixels
Height : 720 pixels
Display aspect ratio : 16:9
Frame rate mode : Variable
Frame rate : 29.970 (29970/1000) FPS
Minimum frame rate : 29.960 FPS
Maximum frame rate : 29.970 FPS
Color space : YUV
Chroma subsampling : 4:2:0
Bit depth : 8 bits
Scan type : Progressive
Bits/(Pixel*Frame) : 0.056
Stream size : 1.84 GiB (92%)

SCI

Audio
ID : 2
Format : AAC LC
Format/Info : Advanced Audio
Codec ID : mp4a-40-2
Duration : 2 h 52 min
Bit rate mode : Constant
Bit rate : 132 kb/s
Channel(s) : 2 channels
Channel layout : L R
Sampling rate : 48.0 kHz
Frame rate : 46.875 FPS (1024 SPF)
Compression mode : Lossy
Stream size : 160 MiB (8%)
Default : Yes
Alternate group : 1

SCI

Night 2 of the 2021 Scenic City Invitational happened live at TWE Arena in Red Bank, TN on August 7th, 2021. Here are the results:

  1. Adam Priest def. Kevin Ku
  2. Scenic City Invitational Semifinals: Alex Kane def. Jon Davis
  3. Scenic City Invitational Semifinals: AC Mack def. Jeremy Wyatt
  4. Scenic City Invitational Semifinals: Daniel Makabe def. Arik Royal
  5. Scenic City Invitational Semifinals: Daniel Garcia def. Jaden Newman
  6. Scenic City Scramble: Damyan Tangra def. Robert Martyr, Kevin Ryan, Bobby Flaco, Ashton Starr & Orion Bishop
  7. No Holds Barred Match: Logan Creed def. Tank
  8. Team Pitbull (Brett Ison, Cabana Man Dan, One Called Manders & Ron Bass Jr.) def. Merc Squad (Graham Bell, Big Beef, Hoodfoot & Eli Knight)
  9. O’Shay Edwards def. Derek Neal
  10. Scenic City Invitational Finals: AC Mack def. Alex Kane, Daniel Garcia & Daniel Makabe

SCI

Complete name : SCI.2021.08.07.SCI.Night.2.720p.WEB.h264-NCMP.mp4
Format : MPEG-4
Format profile : Base Media
Codec ID : isom
File size : 2.00 GiB
Duration : 2 h 52 min
Overall bit rate : 1 668 kb/s

Video
ID : 1
Format : AVC
Format/Info : Advanced Video
Duration : 2 h 52 min
Bit rate : 1 536 kb/s
Width : 1 280 pixels
Height : 720 pixels
Display aspect ratio : 16:9
Frame rate mode : Variable
Frame rate : 29.970 (29970/1000) FPS
Minimum frame rate : 29.960 FPS
Maximum frame rate : 29.970 FPS
Color space : YUV
Chroma subsampling : 4:2:0
Bit depth : 8 bits
Scan type : Progressive
Bits/(Pixel*Frame) : 0.056
Stream size : 1.84 GiB (92%)

SCI

Audio
ID : 2
Format : AAC LC
Format/Info : Advanced Audio
Codec ID : mp4a-40-2
Duration : 2 h 52 min
Bit rate mode : Constant
Bit rate : 132 kb/s
Channel(s) : 2 channels
Channel layout : L R
Sampling rate : 48.0 kHz
Frame rate : 46.875 FPS (1024 SPF)
Compression mode : Lossy
Stream size : 160 MiB (8%)
Default : Yes
Alternate group : 1

SCI

Night 2 of the 2021 Scenic City Invitational happened live at TWE Arena in Red Bank, TN on August 7th, 2021. Here are the results:

  1. Adam Priest def. Kevin Ku
  2. Scenic City Invitational Semifinals: Alex Kane def. Jon Davis
  3. Scenic City Invitational Semifinals: AC Mack def. Jeremy Wyatt
  4. Scenic City Invitational Semifinals: Daniel Makabe def. Arik Royal
  5. Scenic City Invitational Semifinals: Daniel Garcia def. Jaden Newman
  6. Scenic City Scramble: Damyan Tangra def. Robert Martyr, Kevin Ryan, Bobby Flaco, Ashton Starr & Orion Bishop
  7. No Holds Barred Match: Logan Creed def. Tank
  8. Team Pitbull (Brett Ison, Cabana Man Dan, One Called Manders & Ron Bass Jr.) def. Merc Squad (Graham Bell, Big Beef, Hoodfoot & Eli Knight)
  9. O’Shay Edwards def. Derek Neal
  10. Scenic City Invitational Finals: AC Mack def. Alex Kane, Daniel Garcia & Daniel Makabe

SCI

Complete name : SCI.2021.08.07.SCI.Night.2.720p.WEB.h264-NCMP.mp4
Format : MPEG-4
Format profile : Base Media
Codec ID : isom
File size : 2.00 GiB
Duration : 2 h 52 min
Overall bit rate : 1 668 kb/s

Video
ID : 1
Format : AVC
Format/Info : Advanced Video
Duration : 2 h 52 min
Bit rate : 1 536 kb/s
Width : 1 280 pixels
Height : 720 pixels
Display aspect ratio : 16:9
Frame rate mode : Variable
Frame rate : 29.970 (29970/1000) FPS
Minimum frame rate : 29.960 FPS
Maximum frame rate : 29.970 FPS
Color space : YUV
Chroma subsampling : 4:2:0
Bit depth : 8 bits
Scan type : Progressive
Bits/(Pixel*Frame) : 0.056
Stream size : 1.84 GiB (92%)

SCI

Audio
ID : 2
Format : AAC LC
Format/Info : Advanced Audio
Codec ID : mp4a-40-2
Duration : 2 h 52 min
Bit rate mode : Constant
Bit rate : 132 kb/s
Channel(s) : 2 channels
Channel layout : L R
Sampling rate : 48.0 kHz
Frame rate : 46.875 FPS (1024 SPF)
Compression mode : Lossy
Stream size : 160 MiB (8%)
Default : Yes
Alternate group : 1

SCI

Night 2 of the 2021 Scenic City Invitational happened live at TWE Arena in Red Bank, TN on August 7th, 2021. Here are the results:

  1. Adam Priest def. Kevin Ku
  2. Scenic City Invitational Semifinals: Alex Kane def. Jon Davis
  3. Scenic City Invitational Semifinals: AC Mack def. Jeremy Wyatt
  4. Scenic City Invitational Semifinals: Daniel Makabe def. Arik Royal
  5. Scenic City Invitational Semifinals: Daniel Garcia def. Jaden Newman
  6. Scenic City Scramble: Damyan Tangra def. Robert Martyr, Kevin Ryan, Bobby Flaco, Ashton Starr & Orion Bishop
  7. No Holds Barred Match: Logan Creed def. Tank
  8. Team Pitbull (Brett Ison, Cabana Man Dan, One Called Manders & Ron Bass Jr.) def. Merc Squad (Graham Bell, Big Beef, Hoodfoot & Eli Knight)
  9. O’Shay Edwards def. Derek Neal
  10. Scenic City Invitational Finals: AC Mack def. Alex Kane, Daniel Garcia & Daniel Makabe

SCI

Complete name : SCI.2021.08.07.SCI.Night.2.720p.WEB.h264-NCMP.mp4
Format : MPEG-4
Format profile : Base Media
Codec ID : isom
File size : 2.00 GiB
Duration : 2 h 52 min
Overall bit rate : 1 668 kb/s

Video
ID : 1
Format : AVC
Format/Info : Advanced Video
Duration : 2 h 52 min
Bit rate : 1 536 kb/s
Width : 1 280 pixels
Height : 720 pixels
Display aspect ratio : 16:9
Frame rate mode : Variable
Frame rate : 29.970 (29970/1000) FPS
Minimum frame rate : 29.960 FPS
Maximum frame rate : 29.970 FPS
Color space : YUV
Chroma subsampling : 4:2:0
Bit depth : 8 bits
Scan type : Progressive
Bits/(Pixel*Frame) : 0.056
Stream size : 1.84 GiB (92%)

SCI

Audio
ID : 2
Format : AAC LC
Format/Info : Advanced Audio
Codec ID : mp4a-40-2
Duration : 2 h 52 min
Bit rate mode : Constant
Bit rate : 132 kb/s
Channel(s) : 2 channels
Channel layout : L R
Sampling rate : 48.0 kHz
Frame rate : 46.875 FPS (1024 SPF)
Compression mode : Lossy
Stream size : 160 MiB (8%)
Default : Yes
Alternate group : 1

SCI

Night 2 of the 2021 Scenic City Invitational happened live at TWE Arena in Red Bank, TN on August 7th, 2021. Here are the results:

  1. Adam Priest def. Kevin Ku
  2. Scenic City Invitational Semifinals: Alex Kane def. Jon Davis
  3. Scenic City Invitational Semifinals: AC Mack def. Jeremy Wyatt
  4. Scenic City Invitational Semifinals: Daniel Makabe def. Arik Royal
  5. Scenic City Invitational Semifinals: Daniel Garcia def. Jaden Newman
  6. Scenic City Scramble: Damyan Tangra def. Robert Martyr, Kevin Ryan, Bobby Flaco, Ashton Starr & Orion Bishop
  7. No Holds Barred Match: Logan Creed def. Tank
  8. Team Pitbull (Brett Ison, Cabana Man Dan, One Called Manders & Ron Bass Jr.) def. Merc Squad (Graham Bell, Big Beef, Hoodfoot & Eli Knight)
  9. O’Shay Edwards def. Derek Neal
  10. Scenic City Invitational Finals: AC Mack def. Alex Kane, Daniel Garcia & Daniel Makabe

SCI

Complete name : SCI.2021.08.07.SCI.Night.2.720p.WEB.h264-NCMP.mp4
Format : MPEG-4
Format profile : Base Media
Codec ID : isom
File size : 2.00 GiB
Duration : 2 h 52 min
Overall bit rate : 1 668 kb/s

Video
ID : 1
Format : AVC
Format/Info : Advanced Video
Duration : 2 h 52 min
Bit rate : 1 536 kb/s
Width : 1 280 pixels
Height : 720 pixels
Display aspect ratio : 16:9
Frame rate mode : Variable
Frame rate : 29.970 (29970/1000) FPS
Minimum frame rate : 29.960 FPS
Maximum frame rate : 29.970 FPS
Color space : YUV
Chroma subsampling : 4:2:0
Bit depth : 8 bits
Scan type : Progressive
Bits/(Pixel*Frame) : 0.056
Stream size : 1.84 GiB (92%)

SCI

Audio
ID : 2
Format : AAC LC
Format/Info : Advanced Audio
Codec ID : mp4a-40-2
Duration : 2 h 52 min
Bit rate mode : Constant
Bit rate : 132 kb/s
Channel(s) : 2 channels
Channel layout : L R
Sampling rate : 48.0 kHz
Frame rate : 46.875 FPS (1024 SPF)
Compression mode : Lossy
Stream size : 160 MiB (8%)
Default : Yes
Alternate group : 1

SCI

Night 2 of the 2021 Scenic City Invitational happened live at TWE Arena in Red Bank, TN on August 7th, 2021. Here are the results:

  1. Adam Priest def. Kevin Ku
  2. Scenic City Invitational Semifinals: Alex Kane def. Jon Davis
  3. Scenic City Invitational Semifinals: AC Mack def. Jeremy Wyatt
  4. Scenic City Invitational Semifinals: Daniel Makabe def. Arik Royal
  5. Scenic City Invitational Semifinals: Daniel Garcia def. Jaden Newman
  6. Scenic City Scramble: Damyan Tangra def. Robert Martyr, Kevin Ryan, Bobby Flaco, Ashton Starr & Orion Bishop
  7. No Holds Barred Match: Logan Creed def. Tank
  8. Team Pitbull (Brett Ison, Cabana Man Dan, One Called Manders & Ron Bass Jr.) def. Merc Squad (Graham Bell, Big Beef, Hoodfoot & Eli Knight)
  9. O’Shay Edwards def. Derek Neal
  10. Scenic City Invitational Finals: AC Mack def. Alex Kane, Daniel Garcia & Daniel Makabe

SCI

Complete name : SCI.2021.08.07.SCI.Night.2.720p.WEB.h264-NCMP.mp4
Format : MPEG-4
Format profile : Base Media
Codec ID : isom
File size : 2.00 GiB
Duration : 2 h 52 min
Overall bit rate : 1 668 kb/s

Video
ID : 1
Format : AVC
Format/Info : Advanced Video
Duration : 2 h 52 min
Bit rate : 1 536 kb/s
Width : 1 280 pixels
Height : 720 pixels
Display aspect ratio : 16:9
Frame rate mode : Variable
Frame rate : 29.970 (29970/1000) FPS
Minimum frame rate : 29.960 FPS
Maximum frame rate : 29.970 FPS
Color space : YUV
Chroma subsampling : 4:2:0
Bit depth : 8 bits
Scan type : Progressive
Bits/(Pixel*Frame) : 0.056
Stream size : 1.84 GiB (92%)

SCI

Audio
ID : 2
Format : AAC LC
Format/Info : Advanced Audio
Codec ID : mp4a-40-2
Duration : 2 h 52 min
Bit rate mode : Constant
Bit rate : 132 kb/s
Channel(s) : 2 channels
Channel layout : L R
Sampling rate : 48.0 kHz
Frame rate : 46.875 FPS (1024 SPF)
Compression mode : Lossy
Stream size : 160 MiB (8%)
Default : Yes
Alternate group : 1

SCI

Night 2 of the 2021 Scenic City Invitational happened live at TWE Arena in Red Bank, TN on August 7th, 2021. Here are the results:

  1. Adam Priest def. Kevin Ku
  2. Scenic City Invitational Semifinals: Alex Kane def. Jon Davis
  3. Scenic City Invitational Semifinals: AC Mack def. Jeremy Wyatt
  4. Scenic City Invitational Semifinals: Daniel Makabe def. Arik Royal
  5. Scenic City Invitational Semifinals: Daniel Garcia def. Jaden Newman
  6. Scenic City Scramble: Damyan Tangra def. Robert Martyr, Kevin Ryan, Bobby Flaco, Ashton Starr & Orion Bishop
  7. No Holds Barred Match: Logan Creed def. Tank
  8. Team Pitbull (Brett Ison, Cabana Man Dan, One Called Manders & Ron Bass Jr.) def. Merc Squad (Graham Bell, Big Beef, Hoodfoot & Eli Knight)
  9. O’Shay Edwards def. Derek Neal
  10. Scenic City Invitational Finals: AC Mack def. Alex Kane, Daniel Garcia & Daniel Makabe

SCI

Complete name : SCI.2021.08.07.SCI.Night.2.720p.WEB.h264-NCMP.mp4
Format : MPEG-4
Format profile : Base Media
Codec ID : isom
File size : 2.00 GiB
Duration : 2 h 52 min
Overall bit rate : 1 668 kb/s

Video
ID : 1
Format : AVC
Format/Info : Advanced Video
Duration : 2 h 52 min
Bit rate : 1 536 kb/s
Width : 1 280 pixels
Height : 720 pixels
Display aspect ratio : 16:9
Frame rate mode : Variable
Frame rate : 29.970 (29970/1000) FPS
Minimum frame rate : 29.960 FPS
Maximum frame rate : 29.970 FPS
Color space : YUV
Chroma subsampling : 4:2:0
Bit depth : 8 bits
Scan type : Progressive
Bits/(Pixel*Frame) : 0.056
Stream size : 1.84 GiB (92%)

SCI

Audio
ID : 2
Format : AAC LC
Format/Info : Advanced Audio
Codec ID : mp4a-40-2
Duration : 2 h 52 min
Bit rate mode : Constant
Bit rate : 132 kb/s
Channel(s) : 2 channels
Channel layout : L R
Sampling rate : 48.0 kHz
Frame rate : 46.875 FPS (1024 SPF)
Compression mode : Lossy
Stream size : 160 MiB (8%)
Default : Yes
Alternate group : 1

SCI

Night 2 of the 2021 Scenic City Invitational happened live at TWE Arena in Red Bank, TN on August 7th, 2021. Here are the results:

  1. Adam Priest def. Kevin Ku
  2. Scenic City Invitational Semifinals: Alex Kane def. Jon Davis
  3. Scenic City Invitational Semifinals: AC Mack def. Jeremy Wyatt
  4. Scenic City Invitational Semifinals: Daniel Makabe def. Arik Royal
  5. Scenic City Invitational Semifinals: Daniel Garcia def. Jaden Newman
  6. Scenic City Scramble: Damyan Tangra def. Robert Martyr, Kevin Ryan, Bobby Flaco, Ashton Starr & Orion Bishop
  7. No Holds Barred Match: Logan Creed def. Tank
  8. Team Pitbull (Brett Ison, Cabana Man Dan, One Called Manders & Ron Bass Jr.) def. Merc Squad (Graham Bell, Big Beef, Hoodfoot & Eli Knight)
  9. O’Shay Edwards def. Derek Neal
  10. Scenic City Invitational Finals: AC Mack def. Alex Kane, Daniel Garcia & Daniel Makabe

SCI

 

[collapse]

 

 

https://dx-tv.com/

You May Also Like

Leave a Reply

Your email address will not be published. Required fields are marked *

This site uses Akismet to reduce spam. Learn how your comment data is processed.