SCI Night 1 2021 08 06 720p Online Free Replay

SCI Night 1 2021 08 06 720p Online Free Replay DX-TV

SCI Night 1

 SCI Night 1

 

 

 

Download Links with premium High Speed


 

Dopapk

 

 

Show Links

 

http://shrt10.com/jfuRo

 

[collapse]

 

 

Nitroflare

 

 

Show Links

 

http://shrt10.com/scWdl

 

[collapse]

 

 

Rapidgator

 

 

Show Links

 

http://shrt10.com/WaGJu

 

[collapse]

 

 

Uploaded

 

 

Show Links

 

http://shrt10.com/5EN5qZKTT

 

[collapse]

 

 

Watch online

 

Server 1

 

 

 

 

SCI Night 1

 

 

 

 

Server-2

 

 

 

 

watch now

 

 

 

|Server-3

 

 

 

 

watch now

 

 

Uploaded By Site DX-TV.com

 

 

Show Info This Show

SCI Night 1

 

Complete name : SCI.2021.08.06.SCI.Night.1.720p.WEB.h264-NCMP.mp4
Format : MPEG-4
Format profile : Base Media
Codec ID : isom
File size : 1.80 GiB
Duration : 2 h 34 min
Overall bit rate : 1 672 kb/s

Video
ID : 1
Format : AVC
Format/Info : Advanced Video
Duration : 2 h 34 min
Bit rate : 1 536 kb/s
Width : 1 280 pixels
Height : 720 pixels
Display aspect ratio : 16:9
Frame rate mode : Variable
Frame rate : 29.970 (29970/1000) FPS
Minimum frame rate : 29.960 FPS
Maximum frame rate : 29.970 FPS
Color space : YUV
Chroma subsampling : 4:2:0
Bit depth : 8 bits
Scan type : Progressive
Bits/(Pixel*Frame) : 0.056
Stream size : 1.65 GiB (92%)

SCI Night 1

Audio
ID : 2
Format : AAC LC
Format/Info : Advanced Audio
Codec ID : mp4a-40-2
Duration : 2 h 34 min
Bit rate mode : Constant
Bit rate : 132 kb/s
Channel(s) : 2 channels
Channel layout : L R
Sampling rate : 48.0 kHz
Frame rate : 46.875 FPS
Compression mode : Lossy
Stream size : 144 MiB (8%)
Default : Yes
Alternate group : 1

SCI Night 1

Night 1 of the 2021 Scenic City Invitational happened live from TWE Arena in Red Bank, TN on August 6th, 2021. Here are the results:

Scenic City Invitational First Round Match: AC Mack def. Big Beef
Scenic City Invitational First Round Match: Jon Davis def. Logan Creed
Scenic City Invitational First Round Match: Daniel Garcia def. Graham Bell
Scenic City Invitational First Round Match: Jeremy Wyatt def. Cabana Man Dan
Scenic City Invitational First Round Match: Alex Kane def. One Called Manders
Scenic City Invitational First Round Match: Arik Royal def. Derek Neal
Scenic City Invitational First Round Match: Jaden Newman def. Brett Ison
Scenic City Invitational First Round Match: Daniel Makabe def. Adam Priest

SCI Night 1

Complete name : SCI.2021.08.06.SCI.Night.1.720p.WEB.h264-NCMP.mp4
Format : MPEG-4
Format profile : Base Media
Codec ID : isom
File size : 1.80 GiB
Duration : 2 h 34 min
Overall bit rate : 1 672 kb/s

Video
ID : 1
Format : AVC
Format/Info : Advanced Video
Duration : 2 h 34 min
Bit rate : 1 536 kb/s
Width : 1 280 pixels
Height : 720 pixels
Display aspect ratio : 16:9
Frame rate mode : Variable
Frame rate : 29.970 (29970/1000) FPS
Minimum frame rate : 29.960 FPS
Maximum frame rate : 29.970 FPS
Color space : YUV
Chroma subsampling : 4:2:0
Bit depth : 8 bits
Scan type : Progressive
Bits/(Pixel*Frame) : 0.056
Stream size : 1.65 GiB (92%)

SCI Night 1

Audio
ID : 2
Format : AAC LC
Format/Info : Advanced Audio
Codec ID : mp4a-40-2
Duration : 2 h 34 min
Bit rate mode : Constant
Bit rate : 132 kb/s
Channel(s) : 2 channels
Channel layout : L R
Sampling rate : 48.0 kHz
Frame rate : 46.875 FPS
Compression mode : Lossy
Stream size : 144 MiB (8%)
Default : Yes
Alternate group : 1

SCI Night 1

Night 1 of the 2021 Scenic City Invitational happened live from TWE Arena in Red Bank, TN on August 6th, 2021. Here are the results:

Scenic City Invitational First Round Match: AC Mack def. Big Beef
Scenic City Invitational First Round Match: Jon Davis def. Logan Creed
Scenic City Invitational First Round Match: Daniel Garcia def. Graham Bell
Scenic City Invitational First Round Match: Jeremy Wyatt def. Cabana Man Dan
Scenic City Invitational First Round Match: Alex Kane def. One Called Manders
Scenic City Invitational First Round Match: Arik Royal def. Derek Neal
Scenic City Invitational First Round Match: Jaden Newman def. Brett Ison
Scenic City Invitational First Round Match: Daniel Makabe def. Adam Priest

SCI Night 1

Complete name : SCI.2021.08.06.SCI.Night.1.720p.WEB.h264-NCMP.mp4
Format : MPEG-4
Format profile : Base Media
Codec ID : isom
File size : 1.80 GiB
Duration : 2 h 34 min
Overall bit rate : 1 672 kb/s

Video
ID : 1
Format : AVC
Format/Info : Advanced Video
Duration : 2 h 34 min
Bit rate : 1 536 kb/s
Width : 1 280 pixels
Height : 720 pixels
Display aspect ratio : 16:9
Frame rate mode : Variable
Frame rate : 29.970 (29970/1000) FPS
Minimum frame rate : 29.960 FPS
Maximum frame rate : 29.970 FPS
Color space : YUV
Chroma subsampling : 4:2:0
Bit depth : 8 bits
Scan type : Progressive
Bits/(Pixel*Frame) : 0.056
Stream size : 1.65 GiB (92%)

SCI Night 1

Audio
ID : 2
Format : AAC LC
Format/Info : Advanced Audio
Codec ID : mp4a-40-2
Duration : 2 h 34 min
Bit rate mode : Constant
Bit rate : 132 kb/s
Channel(s) : 2 channels
Channel layout : L R
Sampling rate : 48.0 kHz
Frame rate : 46.875 FPS
Compression mode : Lossy
Stream size : 144 MiB (8%)
Default : Yes
Alternate group : 1

SCI Night 1

Night 1 of the 2021 Scenic City Invitational happened live from TWE Arena in Red Bank, TN on August 6th, 2021. Here are the results:

Scenic City Invitational First Round Match: AC Mack def. Big Beef
Scenic City Invitational First Round Match: Jon Davis def. Logan Creed
Scenic City Invitational First Round Match: Daniel Garcia def. Graham Bell
Scenic City Invitational First Round Match: Jeremy Wyatt def. Cabana Man Dan
Scenic City Invitational First Round Match: Alex Kane def. One Called Manders
Scenic City Invitational First Round Match: Arik Royal def. Derek Neal
Scenic City Invitational First Round Match: Jaden Newman def. Brett Ison
Scenic City Invitational First Round Match: Daniel Makabe def. Adam Priest

SCI Night 1

Complete name : SCI.2021.08.06.SCI.Night.1.720p.WEB.h264-NCMP.mp4
Format : MPEG-4
Format profile : Base Media
Codec ID : isom
File size : 1.80 GiB
Duration : 2 h 34 min
Overall bit rate : 1 672 kb/s

Video
ID : 1
Format : AVC
Format/Info : Advanced Video
Duration : 2 h 34 min
Bit rate : 1 536 kb/s
Width : 1 280 pixels
Height : 720 pixels
Display aspect ratio : 16:9
Frame rate mode : Variable
Frame rate : 29.970 (29970/1000) FPS
Minimum frame rate : 29.960 FPS
Maximum frame rate : 29.970 FPS
Color space : YUV
Chroma subsampling : 4:2:0
Bit depth : 8 bits
Scan type : Progressive
Bits/(Pixel*Frame) : 0.056
Stream size : 1.65 GiB (92%)

SCI Night 1

Audio
ID : 2
Format : AAC LC
Format/Info : Advanced Audio
Codec ID : mp4a-40-2
Duration : 2 h 34 min
Bit rate mode : Constant
Bit rate : 132 kb/s
Channel(s) : 2 channels
Channel layout : L R
Sampling rate : 48.0 kHz
Frame rate : 46.875 FPS
Compression mode : Lossy
Stream size : 144 MiB (8%)
Default : Yes
Alternate group : 1

SCI Night 1

Night 1 of the 2021 Scenic City Invitational happened live from TWE Arena in Red Bank, TN on August 6th, 2021. Here are the results:

Scenic City Invitational First Round Match: AC Mack def. Big Beef
Scenic City Invitational First Round Match: Jon Davis def. Logan Creed
Scenic City Invitational First Round Match: Daniel Garcia def. Graham Bell
Scenic City Invitational First Round Match: Jeremy Wyatt def. Cabana Man Dan
Scenic City Invitational First Round Match: Alex Kane def. One Called Manders
Scenic City Invitational First Round Match: Arik Royal def. Derek Neal
Scenic City Invitational First Round Match: Jaden Newman def. Brett Ison
Scenic City Invitational First Round Match: Daniel Makabe def. Adam Priest

SCI Night 1

Complete name : SCI.2021.08.06.SCI.Night.1.720p.WEB.h264-NCMP.mp4
Format : MPEG-4
Format profile : Base Media
Codec ID : isom
File size : 1.80 GiB
Duration : 2 h 34 min
Overall bit rate : 1 672 kb/s

Video
ID : 1
Format : AVC
Format/Info : Advanced Video
Duration : 2 h 34 min
Bit rate : 1 536 kb/s
Width : 1 280 pixels
Height : 720 pixels
Display aspect ratio : 16:9
Frame rate mode : Variable
Frame rate : 29.970 (29970/1000) FPS
Minimum frame rate : 29.960 FPS
Maximum frame rate : 29.970 FPS
Color space : YUV
Chroma subsampling : 4:2:0
Bit depth : 8 bits
Scan type : Progressive
Bits/(Pixel*Frame) : 0.056
Stream size : 1.65 GiB (92%)

SCI Night 1

Audio
ID : 2
Format : AAC LC
Format/Info : Advanced Audio
Codec ID : mp4a-40-2
Duration : 2 h 34 min
Bit rate mode : Constant
Bit rate : 132 kb/s
Channel(s) : 2 channels
Channel layout : L R
Sampling rate : 48.0 kHz
Frame rate : 46.875 FPS
Compression mode : Lossy
Stream size : 144 MiB (8%)
Default : Yes
Alternate group : 1

SCI Night 1

Night 1 of the 2021 Scenic City Invitational happened live from TWE Arena in Red Bank, TN on August 6th, 2021. Here are the results:

Scenic City Invitational First Round Match: AC Mack def. Big Beef
Scenic City Invitational First Round Match: Jon Davis def. Logan Creed
Scenic City Invitational First Round Match: Daniel Garcia def. Graham Bell
Scenic City Invitational First Round Match: Jeremy Wyatt def. Cabana Man Dan
Scenic City Invitational First Round Match: Alex Kane def. One Called Manders
Scenic City Invitational First Round Match: Arik Royal def. Derek Neal
Scenic City Invitational First Round Match: Jaden Newman def. Brett Ison
Scenic City Invitational First Round Match: Daniel Makabe def. Adam Priest

SCI Night 1

Complete name : SCI.2021.08.06.SCI.Night.1.720p.WEB.h264-NCMP.mp4
Format : MPEG-4
Format profile : Base Media
Codec ID : isom
File size : 1.80 GiB
Duration : 2 h 34 min
Overall bit rate : 1 672 kb/s

Video
ID : 1
Format : AVC
Format/Info : Advanced Video
Duration : 2 h 34 min
Bit rate : 1 536 kb/s
Width : 1 280 pixels
Height : 720 pixels
Display aspect ratio : 16:9
Frame rate mode : Variable
Frame rate : 29.970 (29970/1000) FPS
Minimum frame rate : 29.960 FPS
Maximum frame rate : 29.970 FPS
Color space : YUV
Chroma subsampling : 4:2:0
Bit depth : 8 bits
Scan type : Progressive
Bits/(Pixel*Frame) : 0.056
Stream size : 1.65 GiB (92%)

SCI Night 1

Audio
ID : 2
Format : AAC LC
Format/Info : Advanced Audio
Codec ID : mp4a-40-2
Duration : 2 h 34 min
Bit rate mode : Constant
Bit rate : 132 kb/s
Channel(s) : 2 channels
Channel layout : L R
Sampling rate : 48.0 kHz
Frame rate : 46.875 FPS
Compression mode : Lossy
Stream size : 144 MiB (8%)
Default : Yes
Alternate group : 1

SCI Night 1

Night 1 of the 2021 Scenic City Invitational happened live from TWE Arena in Red Bank, TN on August 6th, 2021. Here are the results:

Scenic City Invitational First Round Match: AC Mack def. Big Beef
Scenic City Invitational First Round Match: Jon Davis def. Logan Creed
Scenic City Invitational First Round Match: Daniel Garcia def. Graham Bell
Scenic City Invitational First Round Match: Jeremy Wyatt def. Cabana Man Dan
Scenic City Invitational First Round Match: Alex Kane def. One Called Manders
Scenic City Invitational First Round Match: Arik Royal def. Derek Neal
Scenic City Invitational First Round Match: Jaden Newman def. Brett Ison
Scenic City Invitational First Round Match: Daniel Makabe def. Adam Priest

SCI Night 1

Complete name : SCI.2021.08.06.SCI.Night.1.720p.WEB.h264-NCMP.mp4
Format : MPEG-4
Format profile : Base Media
Codec ID : isom
File size : 1.80 GiB
Duration : 2 h 34 min
Overall bit rate : 1 672 kb/s

Video
ID : 1
Format : AVC
Format/Info : Advanced Video
Duration : 2 h 34 min
Bit rate : 1 536 kb/s
Width : 1 280 pixels
Height : 720 pixels
Display aspect ratio : 16:9
Frame rate mode : Variable
Frame rate : 29.970 (29970/1000) FPS
Minimum frame rate : 29.960 FPS
Maximum frame rate : 29.970 FPS
Color space : YUV
Chroma subsampling : 4:2:0
Bit depth : 8 bits
Scan type : Progressive
Bits/(Pixel*Frame) : 0.056
Stream size : 1.65 GiB (92%)

SCI Night 1

Audio
ID : 2
Format : AAC LC
Format/Info : Advanced Audio
Codec ID : mp4a-40-2
Duration : 2 h 34 min
Bit rate mode : Constant
Bit rate : 132 kb/s
Channel(s) : 2 channels
Channel layout : L R
Sampling rate : 48.0 kHz
Frame rate : 46.875 FPS
Compression mode : Lossy
Stream size : 144 MiB (8%)
Default : Yes
Alternate group : 1

SCI Night 1

Night 1 of the 2021 Scenic City Invitational happened live from TWE Arena in Red Bank, TN on August 6th, 2021. Here are the results:

Scenic City Invitational First Round Match: AC Mack def. Big Beef
Scenic City Invitational First Round Match: Jon Davis def. Logan Creed
Scenic City Invitational First Round Match: Daniel Garcia def. Graham Bell
Scenic City Invitational First Round Match: Jeremy Wyatt def. Cabana Man Dan
Scenic City Invitational First Round Match: Alex Kane def. One Called Manders
Scenic City Invitational First Round Match: Arik Royal def. Derek Neal
Scenic City Invitational First Round Match: Jaden Newman def. Brett Ison
Scenic City Invitational First Round Match: Daniel Makabe def. Adam Priest

SCI Night 1

Complete name : SCI.2021.08.06.SCI.Night.1.720p.WEB.h264-NCMP.mp4
Format : MPEG-4
Format profile : Base Media
Codec ID : isom
File size : 1.80 GiB
Duration : 2 h 34 min
Overall bit rate : 1 672 kb/s

Video
ID : 1
Format : AVC
Format/Info : Advanced Video
Duration : 2 h 34 min
Bit rate : 1 536 kb/s
Width : 1 280 pixels
Height : 720 pixels
Display aspect ratio : 16:9
Frame rate mode : Variable
Frame rate : 29.970 (29970/1000) FPS
Minimum frame rate : 29.960 FPS
Maximum frame rate : 29.970 FPS
Color space : YUV
Chroma subsampling : 4:2:0
Bit depth : 8 bits
Scan type : Progressive
Bits/(Pixel*Frame) : 0.056
Stream size : 1.65 GiB (92%)

SCI Night 1

Audio
ID : 2
Format : AAC LC
Format/Info : Advanced Audio
Codec ID : mp4a-40-2
Duration : 2 h 34 min
Bit rate mode : Constant
Bit rate : 132 kb/s
Channel(s) : 2 channels
Channel layout : L R
Sampling rate : 48.0 kHz
Frame rate : 46.875 FPS
Compression mode : Lossy
Stream size : 144 MiB (8%)
Default : Yes
Alternate group : 1

SCI Night 1

Night 1 of the 2021 Scenic City Invitational happened live from TWE Arena in Red Bank, TN on August 6th, 2021. Here are the results:

Scenic City Invitational First Round Match: AC Mack def. Big Beef
Scenic City Invitational First Round Match: Jon Davis def. Logan Creed
Scenic City Invitational First Round Match: Daniel Garcia def. Graham Bell
Scenic City Invitational First Round Match: Jeremy Wyatt def. Cabana Man Dan
Scenic City Invitational First Round Match: Alex Kane def. One Called Manders
Scenic City Invitational First Round Match: Arik Royal def. Derek Neal
Scenic City Invitational First Round Match: Jaden Newman def. Brett Ison
Scenic City Invitational First Round Match: Daniel Makabe def. Adam Priest

SCI Night 1

Complete name : SCI.2021.08.06.SCI.Night.1.720p.WEB.h264-NCMP.mp4
Format : MPEG-4
Format profile : Base Media
Codec ID : isom
File size : 1.80 GiB
Duration : 2 h 34 min
Overall bit rate : 1 672 kb/s

Video
ID : 1
Format : AVC
Format/Info : Advanced Video
Duration : 2 h 34 min
Bit rate : 1 536 kb/s
Width : 1 280 pixels
Height : 720 pixels
Display aspect ratio : 16:9
Frame rate mode : Variable
Frame rate : 29.970 (29970/1000) FPS
Minimum frame rate : 29.960 FPS
Maximum frame rate : 29.970 FPS
Color space : YUV
Chroma subsampling : 4:2:0
Bit depth : 8 bits
Scan type : Progressive
Bits/(Pixel*Frame) : 0.056
Stream size : 1.65 GiB (92%)

SCI Night 1

Audio
ID : 2
Format : AAC LC
Format/Info : Advanced Audio
Codec ID : mp4a-40-2
Duration : 2 h 34 min
Bit rate mode : Constant
Bit rate : 132 kb/s
Channel(s) : 2 channels
Channel layout : L R
Sampling rate : 48.0 kHz
Frame rate : 46.875 FPS
Compression mode : Lossy
Stream size : 144 MiB (8%)
Default : Yes
Alternate group : 1

SCI Night 1

Night 1 of the 2021 Scenic City Invitational happened live from TWE Arena in Red Bank, TN on August 6th, 2021. Here are the results:

Scenic City Invitational First Round Match: AC Mack def. Big Beef
Scenic City Invitational First Round Match: Jon Davis def. Logan Creed
Scenic City Invitational First Round Match: Daniel Garcia def. Graham Bell
Scenic City Invitational First Round Match: Jeremy Wyatt def. Cabana Man Dan
Scenic City Invitational First Round Match: Alex Kane def. One Called Manders
Scenic City Invitational First Round Match: Arik Royal def. Derek Neal
Scenic City Invitational First Round Match: Jaden Newman def. Brett Ison
Scenic City Invitational First Round Match: Daniel Makabe def. Adam Priest

SCI Night 1

Complete name : SCI.2021.08.06.SCI.Night.1.720p.WEB.h264-NCMP.mp4
Format : MPEG-4
Format profile : Base Media
Codec ID : isom
File size : 1.80 GiB
Duration : 2 h 34 min
Overall bit rate : 1 672 kb/s

Video
ID : 1
Format : AVC
Format/Info : Advanced Video
Duration : 2 h 34 min
Bit rate : 1 536 kb/s
Width : 1 280 pixels
Height : 720 pixels
Display aspect ratio : 16:9
Frame rate mode : Variable
Frame rate : 29.970 (29970/1000) FPS
Minimum frame rate : 29.960 FPS
Maximum frame rate : 29.970 FPS
Color space : YUV
Chroma subsampling : 4:2:0
Bit depth : 8 bits
Scan type : Progressive
Bits/(Pixel*Frame) : 0.056
Stream size : 1.65 GiB (92%)

SCI Night 1

Audio
ID : 2
Format : AAC LC
Format/Info : Advanced Audio
Codec ID : mp4a-40-2
Duration : 2 h 34 min
Bit rate mode : Constant
Bit rate : 132 kb/s
Channel(s) : 2 channels
Channel layout : L R
Sampling rate : 48.0 kHz
Frame rate : 46.875 FPS
Compression mode : Lossy
Stream size : 144 MiB (8%)
Default : Yes
Alternate group : 1

SCI Night 1

Night 1 of the 2021 Scenic City Invitational happened live from TWE Arena in Red Bank, TN on August 6th, 2021. Here are the results:

Scenic City Invitational First Round Match: AC Mack def. Big Beef
Scenic City Invitational First Round Match: Jon Davis def. Logan Creed
Scenic City Invitational First Round Match: Daniel Garcia def. Graham Bell
Scenic City Invitational First Round Match: Jeremy Wyatt def. Cabana Man Dan
Scenic City Invitational First Round Match: Alex Kane def. One Called Manders
Scenic City Invitational First Round Match: Arik Royal def. Derek Neal
Scenic City Invitational First Round Match: Jaden Newman def. Brett Ison
Scenic City Invitational First Round Match: Daniel Makabe def. Adam Priest

SCI Night 1

Complete name : SCI.2021.08.06.SCI.Night.1.720p.WEB.h264-NCMP.mp4
Format : MPEG-4
Format profile : Base Media
Codec ID : isom
File size : 1.80 GiB
Duration : 2 h 34 min
Overall bit rate : 1 672 kb/s

Video
ID : 1
Format : AVC
Format/Info : Advanced Video
Duration : 2 h 34 min
Bit rate : 1 536 kb/s
Width : 1 280 pixels
Height : 720 pixels
Display aspect ratio : 16:9
Frame rate mode : Variable
Frame rate : 29.970 (29970/1000) FPS
Minimum frame rate : 29.960 FPS
Maximum frame rate : 29.970 FPS
Color space : YUV
Chroma subsampling : 4:2:0
Bit depth : 8 bits
Scan type : Progressive
Bits/(Pixel*Frame) : 0.056
Stream size : 1.65 GiB (92%)

SCI Night 1

Audio
ID : 2
Format : AAC LC
Format/Info : Advanced Audio
Codec ID : mp4a-40-2
Duration : 2 h 34 min
Bit rate mode : Constant
Bit rate : 132 kb/s
Channel(s) : 2 channels
Channel layout : L R
Sampling rate : 48.0 kHz
Frame rate : 46.875 FPS
Compression mode : Lossy
Stream size : 144 MiB (8%)
Default : Yes
Alternate group : 1

SCI Night 1

Night 1 of the 2021 Scenic City Invitational happened live from TWE Arena in Red Bank, TN on August 6th, 2021. Here are the results:

Scenic City Invitational First Round Match: AC Mack def. Big Beef
Scenic City Invitational First Round Match: Jon Davis def. Logan Creed
Scenic City Invitational First Round Match: Daniel Garcia def. Graham Bell
Scenic City Invitational First Round Match: Jeremy Wyatt def. Cabana Man Dan
Scenic City Invitational First Round Match: Alex Kane def. One Called Manders
Scenic City Invitational First Round Match: Arik Royal def. Derek Neal
Scenic City Invitational First Round Match: Jaden Newman def. Brett Ison
Scenic City Invitational First Round Match: Daniel Makabe def. Adam Priest

SCI Night 1

Complete name : SCI.2021.08.06.SCI.Night.1.720p.WEB.h264-NCMP.mp4
Format : MPEG-4
Format profile : Base Media
Codec ID : isom
File size : 1.80 GiB
Duration : 2 h 34 min
Overall bit rate : 1 672 kb/s

Video
ID : 1
Format : AVC
Format/Info : Advanced Video
Duration : 2 h 34 min
Bit rate : 1 536 kb/s
Width : 1 280 pixels
Height : 720 pixels
Display aspect ratio : 16:9
Frame rate mode : Variable
Frame rate : 29.970 (29970/1000) FPS
Minimum frame rate : 29.960 FPS
Maximum frame rate : 29.970 FPS
Color space : YUV
Chroma subsampling : 4:2:0
Bit depth : 8 bits
Scan type : Progressive
Bits/(Pixel*Frame) : 0.056
Stream size : 1.65 GiB (92%)

SCI Night 1

Audio
ID : 2
Format : AAC LC
Format/Info : Advanced Audio
Codec ID : mp4a-40-2
Duration : 2 h 34 min
Bit rate mode : Constant
Bit rate : 132 kb/s
Channel(s) : 2 channels
Channel layout : L R
Sampling rate : 48.0 kHz
Frame rate : 46.875 FPS
Compression mode : Lossy
Stream size : 144 MiB (8%)
Default : Yes
Alternate group : 1

SCI Night 1

Night 1 of the 2021 Scenic City Invitational happened live from TWE Arena in Red Bank, TN on August 6th, 2021. Here are the results:

Scenic City Invitational First Round Match: AC Mack def. Big Beef
Scenic City Invitational First Round Match: Jon Davis def. Logan Creed
Scenic City Invitational First Round Match: Daniel Garcia def. Graham Bell
Scenic City Invitational First Round Match: Jeremy Wyatt def. Cabana Man Dan
Scenic City Invitational First Round Match: Alex Kane def. One Called Manders
Scenic City Invitational First Round Match: Arik Royal def. Derek Neal
Scenic City Invitational First Round Match: Jaden Newman def. Brett Ison
Scenic City Invitational First Round Match: Daniel Makabe def. Adam Priest

SCI Night 1

Complete name : SCI.2021.08.06.SCI.Night.1.720p.WEB.h264-NCMP.mp4
Format : MPEG-4
Format profile : Base Media
Codec ID : isom
File size : 1.80 GiB
Duration : 2 h 34 min
Overall bit rate : 1 672 kb/s

Video
ID : 1
Format : AVC
Format/Info : Advanced Video
Duration : 2 h 34 min
Bit rate : 1 536 kb/s
Width : 1 280 pixels
Height : 720 pixels
Display aspect ratio : 16:9
Frame rate mode : Variable
Frame rate : 29.970 (29970/1000) FPS
Minimum frame rate : 29.960 FPS
Maximum frame rate : 29.970 FPS
Color space : YUV
Chroma subsampling : 4:2:0
Bit depth : 8 bits
Scan type : Progressive
Bits/(Pixel*Frame) : 0.056
Stream size : 1.65 GiB (92%)

SCI Night 1

Audio
ID : 2
Format : AAC LC
Format/Info : Advanced Audio
Codec ID : mp4a-40-2
Duration : 2 h 34 min
Bit rate mode : Constant
Bit rate : 132 kb/s
Channel(s) : 2 channels
Channel layout : L R
Sampling rate : 48.0 kHz
Frame rate : 46.875 FPS
Compression mode : Lossy
Stream size : 144 MiB (8%)
Default : Yes
Alternate group : 1

SCI Night 1

Night 1 of the 2021 Scenic City Invitational happened live from TWE Arena in Red Bank, TN on August 6th, 2021. Here are the results:

Scenic City Invitational First Round Match: AC Mack def. Big Beef
Scenic City Invitational First Round Match: Jon Davis def. Logan Creed
Scenic City Invitational First Round Match: Daniel Garcia def. Graham Bell
Scenic City Invitational First Round Match: Jeremy Wyatt def. Cabana Man Dan
Scenic City Invitational First Round Match: Alex Kane def. One Called Manders
Scenic City Invitational First Round Match: Arik Royal def. Derek Neal
Scenic City Invitational First Round Match: Jaden Newman def. Brett Ison
Scenic City Invitational First Round Match: Daniel Makabe def. Adam Priest

SCI Night 1

 

[collapse]

 

 

https://dx-tv.com/

You May Also Like

Leave a Reply

Your email address will not be published. Required fields are marked *

This site uses Akismet to reduce spam. Learn how your comment data is processed.