ROH Wrestling Replay Online 2021 05 02 720p

ROH Wrestling Replay Online 2021 05 02 720p DX-TV

ROH Wrestling Replay Online

 ROH Wrestling Replay Online

 

 

 

Download Links with High Speed


Dopapk

 

 

Show Links

 

http://shrt10.com/Xvwd5H2Zh

 

[collapse]

 

 

Nitroflare

 

 

Show Links

 

http://shrt10.com/juTxH

 

[collapse]

 

 

Rapidgator

 

 

Show Links

 

http://shrt10.com/7NxN4rgW

 

[collapse]

 

 

Uploaded

 

 

Show Links

 

http://shrt10.com/WvcgROdg

 

[collapse]

 

 

Watch online

 

Server 1

 

 

 

 

ROH Wrestling Replay Online

 

 

 

 

Server-2

 

 

 

 

watch now

 

 

 

|Server-3

 

 

 

 

watch now

 

 

Uploaded By Site DX-TV.com

 

 

Show Info This Show

 

 

Complete name : ROH.Wrestling.2021.05.02.720p.HDTV.x264-NWCHD.mp4
Format : MPEG-4
Format profile : Base Media
Codec ID : mp42
File size : 1.52 GiB
Duration : 46 min 34 s
Overall bit rate mode : Variable
Overall bit rate : 4 686 kb/s

ROH Wrestling Replay Online

Video
ID : 1
Format : AVC
Format/Info : Advanced Video
Duration : 46 min 34 s
Bit rate : 4 500 kb/s
Width : 1 280 pixels
Height : 720 pixels
Display aspect ratio : 16:9
Frame rate mode : Constant
Frame rate : 29.970 (30000/1001) FPS
Color space : YUV
Chroma subsampling : 4:2:0
Bit depth : 8 bits
Scan type : Progressive
Bits/(Pixel*Frame) : 0.163
Stream size : 1.46 GiB (96%)
Color range : Limited
Color primaries : BT.709
Transfer characteristics : BT.709
Matrix coefficients : BT.709
Codec configuration box : avcC

Audio
ID : 2
Format : AAC LC
Format/Info : Advanced Audio
Codec ID : mp4a-40-2
Duration : 46 min 34 s
Bit rate mode : Variable
Bit rate : 192 kb/s
Channel(s) : 2 channels
Channel layout : L R
Sampling rate : 48.0 kHz
Frame rate : 46.875 FPS
Compression mode : Lossy
Stream size : 64.2 MiB
Title : Stereo
Language : English
Default : Yes
Alternate group : 1

ROH Wrestling Replay

Audio
ID : 2
Format : AAC LC
Format/Info : Advanced Audio
Codec ID : mp4a-40-2
Duration : 46 min 34 s
Bit rate mode : Variable
Bit rate : 192 kb/s
Channel(s) : 2 channels
Channel layout : L R
Sampling rate : 48.0 kHz
Frame rate : 46.875 FPS
Compression mode : Lossy
Stream size : 64.2 MiB
Title : Stereo
Language : English
Default : Yes
Alternate group : 1

Audio
ID : 2
Format : AAC LC
Format/Info : Advanced Audio
Codec ID : mp4a-40-2
Duration : 46 min 34 s
Bit rate mode : Variable
Bit rate : 192 kb/s
Channel(s) : 2 channels
Channel layout : L R
Sampling rate : 48.0 kHz
Frame rate : 46.875 FPS
Compression mode : Lossy
Stream size : 64.2 MiB
Title : Stereo
Language : English
Default : Yes
Alternate group : 1

ROH Wrestling Replay

Audio
ID : 2
Format : AAC LC
Format/Info : Advanced Audio
Codec ID : mp4a-40-2
Duration : 46 min 34 s
Bit rate mode : Variable
Bit rate : 192 kb/s
Channel(s) : 2 channels
Channel layout : L R
Sampling rate : 48.0 kHz
Frame rate : 46.875 FPS
Compression mode : Lossy
Stream size : 64.2 MiB
Title : Stereo
Language : English
Default : Yes
Alternate group : 1

Audio
ID : 2
Format : AAC LC
Format/Info : Advanced Audio
Codec ID : mp4a-40-2
Duration : 46 min 34 s
Bit rate mode : Variable
Bit rate : 192 kb/s
Channel(s) : 2 channels
Channel layout : L R
Sampling rate : 48.0 kHz
Frame rate : 46.875 FPS
Compression mode : Lossy
Stream size : 64.2 MiB
Title : Stereo
Language : English
Default : Yes
Alternate group : 1

ROH Wrestling Replay

 

[collapse]

 

 

https://dx-tv.com/