ROH Wrestling Online 2021 01 24 720p DX-TV

ROH Wrestling

ROH Wrestling Online 2021 01 24 720p DX-TV

ROH Wrestling Online

 ROH Wrestling Online

 

Download Links with premium High Speed   

 

 

dropapk.to

 

http://shrt10.com/hJMtLei

 

nitroflare.com

http://shrt10.com/tK9tQAm

 

 

rapidgator.net

http://shrt10.com/kwVUSERDb

 

 

uploaded.net

http://shrt10.com/5ix14eL

 

 

 

Watch ROH Wrestling online

 

Server 1

 

 

 

 

ROH Wrestling

 

 

 

 

Server-2

 

 

 

 

watch now

 

 

Uploaded By Site DX-TV.com

 

 

Complete name : ROH.Wrestling.2021.01.24.720p.HDTV.x264-NWCHD.mp4
Format : MPEG-4
Format profile : Base Media
Codec ID : mp42
File size : 1.53 GiB
Duration : 46 min 34 s
Overall bit rate mode : Variable
Overall bit rate : 4 717 kb/s

ROH Wrestling

Video
ID : 1
Format : AVC
Duration : 46 min 34 s
Bit rate : 4 500 kb/s
Width : 1 280 pixels
Height : 720 pixels
Display aspect ratio : 16:9
Frame rate mode : Constant
Frame rate : 29.970 FPS
Color space : YUV
Chroma subsampling : 4:2:0
Bit depth : 8 bits
Scan type : Progressive
Bits/(Pixel*Frame) : 0.163
Stream size : 1.47 GiB (96%)
Color range : Limited
Color primaries : BT.709
Transfer characteristics : BT.709
Matrix coefficients : BT.709
Codec configuration box : avcC

Audio
ID : 2
Format : AAC LC
Format/Info : Advanced Audio
Codec ID : mp4a-40-2
Duration : 46 min 34 s
Bit rate mode : Variable
Bit rate : 192 kb/s
Channel(s) : 2 channels
Channel layout : L R
Sampling rate : 48.0 kHz
Frame rate : 46.875 FPS
Compression mode : Lossy
Stream size : 64.0 MiB (4%)
Title : Stereo / Stereo
Language : English
Default : Yes
Alternate group : 1

Audio
ID : 2
Format : AAC LC
Format/Info : Advanced Audio
Codec ID : mp4a-40-2
Duration : 46 min 34 s
Bit rate mode : Variable
Bit rate : 192 kb/s
Channel(s) : 2 channels
Channel layout : L R
Sampling rate : 48.0 kHz
Frame rate : 46.875 FPS
Compression mode : Lossy
Stream size : 64.0 MiB (4%)
Title : Stereo / Stereo
Language : English
Default : Yes
Alternate group : 1

 

 

https://dx-tv.com/

You May Also Like

Leave a Reply

Your email address will not be published. Required fields are marked *

This site uses Akismet to reduce spam. Learn how your comment data is processed.