ROH Wrestling 6th April 2018 720p WEBRip TJ Watch / Download

ROH Wrestling 6th April 2018 720p WEBRip TJ Watch / Download

 

 

 

 

 

wwe

 

 

 

 

 

Complete name : ROH.Wrestling.6th.April.2018.720p.WEBRip.h264-TJ.mp4
Format : MPEG-4
Format profile : Base Media
Codec ID : isom
File size : 1.12 GiB
Duration : 51mn 1s
Overall bit rate : 3 150 Kbps

Video
ID : 1
Format : AVC
Format/Info : Advanced Video Codec
Codec ID : avc1
Codec ID/Info : Advanced Video Coding
Duration : 51mn 1s
Bit rate mode : Variable
Bit rate : 3 072 Kbps
Width : 1 280 pixels
Height : 720 pixels
Display aspect ratio : 16:9
Frame rate mode : Variable
Frame rate : 29.970 fps
Minimum frame rate : 29.960 fps
Maximum frame rate : 29.970 fps
Color space : YUV
Chroma subsampling : 4:2:0
Bit depth : 8 bits
Scan type : Progressive
Bits/(Pixel*Frame) : 0.111
Stream size : 1.07 GiB (96%)
Audio
ID : 2
Format : AAC
Format/Info : Advanced Audio Codec
Format profile : LC
Codec ID : 40
Duration : 51mn 1s
Bit rate mode : Constant
Bit rate : 128 Kbps
Channel(s) : 2 channels
Channel positions : Front: L R
Sampling rate : 44.1 KHz
Compression mode : Lossy
Stream size : 46.6 MiB (4%)

 

 

 

 

 

 

 

ROH Wrestling 6th April 2018 720p WEBRip TJ Watch / Download

 

 

 

 

Watch online

 

 

Waiting finish converting video

 

 

Server 1

 

 

 

 

 

 

 

 

 

 

 

 

 

 

Server 2

 

 

 

 

 

 


 

 

 

 

Uploaded By Site DX-TV.com

 

 

 

open rar file to see this password

 

 

 

 

The password is : DX-TV.com

 

 

 

 

 

 

 

 

Uploaded.net + rapidgator.net

 

 

 

 

 

 

http://shrt10.com/0dWzwdh

 

 

 

 

http://shrt10.com/kBAy

 

 

 

 

 

 

 

 

 

 

ROH Wrestling 6th April 2018 720p WEBRip TJ Watch / Download