ROH Wrestling 2nd July 2021 1080p Online Free

ROH Wrestling 2nd July 2021 1080p Online Free Replay DX-TV

ROH Wrestlinga

 ROH Wrestling

 

 

 

Download Links with High Speed


 

Dopapk

 

 

Show Links

 

http://shrt10.com/L8rGy

 

[collapse]

 

 

Nitroflare

 

 

Show Links

 

http://shrt10.com/NxunRG0j

 

[collapse]

 

 

Rapidgator

 

 

Show Links

 

http://shrt10.com/y6At8YH2X

 

[collapse]

 

 

Uploaded

 

 

Show Links

 

http://shrt10.com/wFpdiD

 

[collapse]

 

 

Watch online

 

Server 1

 

 

 

 

ROH Wrestlinga

 

 

 

 

Server-2

 

 

 

 

watch now

 

 

 

|Server-4

 

 

 

 

watch now

 

 

Uploaded By Site DX-TV.com

 

 

Show Info This Show

 

ROH Wrestlinga

Complete name : ROH.Wrestling.Ep.511.2nd.July.2021.1080p.WEBRip.h264-TJ.mp4
Format : MPEG-4
Format profile : Base Media
Codec ID : isom
File size : 1.31 GiB
Duration : 50 min 43 s
Overall bit rate : 3 687 kb/s

Video
ID : 1
Format : AVC
Format/Info : Advanced Video
Duration : 50 min 43 s
Bit rate : 3 488 kb/s
Width : 1 920 pixels
Height : 1 080 pixels
Display aspect ratio : 16:9
Frame rate mode : Constant
Frame rate : 29.970 (30000/1001) FPS
Color space : YUV
Chroma subsampling : 4:2:0
Bit depth : 8 bits
Scan type : Progressive
Bits/(Pixel*Frame) : 0.056
Stream size : 1.24 GiB (95%)
Codec configuration box : avc

ROH Wrestlinga

Audio
ID : 2
Format : AAC LC
Codec ID : mp4a-40-2
Duration : 50 min 43 s
Bit rate mode : Constant
Bit rate : 192 kb/s
Channel(s) : 2 channels
Channel layout : L R
Sampling rate : 48.0 kHz
Frame rate : 46.875 FPS
Compression mode : Lossy
Stream size : 69.3 MiB (5%)
Default : Yes
Alternate group : 1

ROH Wrestlinga

Complete name : ROH.Wrestling.Ep.511.2nd.July.2021.1080p.WEBRip.h264-TJ.mp4
Format : MPEG-4
Format profile : Base Media
Codec ID : isom
File size : 1.31 GiB
Duration : 50 min 43 s
Overall bit rate : 3 687 kb/s

Video
ID : 1
Format : AVC
Format/Info : Advanced Video
Duration : 50 min 43 s
Bit rate : 3 488 kb/s
Width : 1 920 pixels
Height : 1 080 pixels
Display aspect ratio : 16:9
Frame rate mode : Constant
Frame rate : 29.970 (30000/1001) FPS
Color space : YUV
Chroma subsampling : 4:2:0
Bit depth : 8 bits
Scan type : Progressive
Bits/(Pixel*Frame) : 0.056
Stream size : 1.24 GiB (95%)
Codec configuration box : avc

ROH Wrestlinga

Audio
ID : 2
Format : AAC LC
Codec ID : mp4a-40-2
Duration : 50 min 43 s
Bit rate mode : Constant
Bit rate : 192 kb/s
Channel(s) : 2 channels
Channel layout : L R
Sampling rate : 48.0 kHz
Frame rate : 46.875 FPS
Compression mode : Lossy
Stream size : 69.3 MiB (5%)
Default : Yes
Alternate group : 1

ROH Wrestlinga

Complete name : ROH.Wrestling.Ep.511.2nd.July.2021.1080p.WEBRip.h264-TJ.mp4
Format : MPEG-4
Format profile : Base Media
Codec ID : isom
File size : 1.31 GiB
Duration : 50 min 43 s
Overall bit rate : 3 687 kb/s

Video
ID : 1
Format : AVC
Format/Info : Advanced Video
Duration : 50 min 43 s
Bit rate : 3 488 kb/s
Width : 1 920 pixels
Height : 1 080 pixels
Display aspect ratio : 16:9
Frame rate mode : Constant
Frame rate : 29.970 (30000/1001) FPS
Color space : YUV
Chroma subsampling : 4:2:0
Bit depth : 8 bits
Scan type : Progressive
Bits/(Pixel*Frame) : 0.056
Stream size : 1.24 GiB (95%)
Codec configuration box : avc

ROH Wrestlinga

Audio
ID : 2
Format : AAC LC
Codec ID : mp4a-40-2
Duration : 50 min 43 s
Bit rate mode : Constant
Bit rate : 192 kb/s
Channel(s) : 2 channels
Channel layout : L R
Sampling rate : 48.0 kHz
Frame rate : 46.875 FPS
Compression mode : Lossy
Stream size : 69.3 MiB (5%)
Default : Yes
Alternate group : 1

ROH Wrestlinga

Complete name : ROH.Wrestling.Ep.511.2nd.July.2021.1080p.WEBRip.h264-TJ.mp4
Format : MPEG-4
Format profile : Base Media
Codec ID : isom
File size : 1.31 GiB
Duration : 50 min 43 s
Overall bit rate : 3 687 kb/s

Video
ID : 1
Format : AVC
Format/Info : Advanced Video
Duration : 50 min 43 s
Bit rate : 3 488 kb/s
Width : 1 920 pixels
Height : 1 080 pixels
Display aspect ratio : 16:9
Frame rate mode : Constant
Frame rate : 29.970 (30000/1001) FPS
Color space : YUV
Chroma subsampling : 4:2:0
Bit depth : 8 bits
Scan type : Progressive
Bits/(Pixel*Frame) : 0.056
Stream size : 1.24 GiB (95%)
Codec configuration box : avc

ROH Wrestlinga

Audio
ID : 2
Format : AAC LC
Codec ID : mp4a-40-2
Duration : 50 min 43 s
Bit rate mode : Constant
Bit rate : 192 kb/s
Channel(s) : 2 channels
Channel layout : L R
Sampling rate : 48.0 kHz
Frame rate : 46.875 FPS
Compression mode : Lossy
Stream size : 69.3 MiB (5%)
Default : Yes
Alternate group : 1

ROH Wrestlinga

Complete name : ROH.Wrestling.Ep.511.2nd.July.2021.1080p.WEBRip.h264-TJ.mp4
Format : MPEG-4
Format profile : Base Media
Codec ID : isom
File size : 1.31 GiB
Duration : 50 min 43 s
Overall bit rate : 3 687 kb/s

Video
ID : 1
Format : AVC
Format/Info : Advanced Video
Duration : 50 min 43 s
Bit rate : 3 488 kb/s
Width : 1 920 pixels
Height : 1 080 pixels
Display aspect ratio : 16:9
Frame rate mode : Constant
Frame rate : 29.970 (30000/1001) FPS
Color space : YUV
Chroma subsampling : 4:2:0
Bit depth : 8 bits
Scan type : Progressive
Bits/(Pixel*Frame) : 0.056
Stream size : 1.24 GiB (95%)
Codec configuration box : avc

ROH Wrestlinga

Audio
ID : 2
Format : AAC LC
Codec ID : mp4a-40-2
Duration : 50 min 43 s
Bit rate mode : Constant
Bit rate : 192 kb/s
Channel(s) : 2 channels
Channel layout : L R
Sampling rate : 48.0 kHz
Frame rate : 46.875 FPS
Compression mode : Lossy
Stream size : 69.3 MiB (5%)
Default : Yes
Alternate group : 1

ROH Wrestlinga

Complete name : ROH.Wrestling.Ep.511.2nd.July.2021.1080p.WEBRip.h264-TJ.mp4
Format : MPEG-4
Format profile : Base Media
Codec ID : isom
File size : 1.31 GiB
Duration : 50 min 43 s
Overall bit rate : 3 687 kb/s

Video
ID : 1
Format : AVC
Format/Info : Advanced Video
Duration : 50 min 43 s
Bit rate : 3 488 kb/s
Width : 1 920 pixels
Height : 1 080 pixels
Display aspect ratio : 16:9
Frame rate mode : Constant
Frame rate : 29.970 (30000/1001) FPS
Color space : YUV
Chroma subsampling : 4:2:0
Bit depth : 8 bits
Scan type : Progressive
Bits/(Pixel*Frame) : 0.056
Stream size : 1.24 GiB (95%)
Codec configuration box : avc

ROH Wrestlinga

Audio
ID : 2
Format : AAC LC
Codec ID : mp4a-40-2
Duration : 50 min 43 s
Bit rate mode : Constant
Bit rate : 192 kb/s
Channel(s) : 2 channels
Channel layout : L R
Sampling rate : 48.0 kHz
Frame rate : 46.875 FPS
Compression mode : Lossy
Stream size : 69.3 MiB (5%)
Default : Yes
Alternate group : 1

ROH Wrestlinga

Complete name : ROH.Wrestling.Ep.511.2nd.July.2021.1080p.WEBRip.h264-TJ.mp4
Format : MPEG-4
Format profile : Base Media
Codec ID : isom
File size : 1.31 GiB
Duration : 50 min 43 s
Overall bit rate : 3 687 kb/s

Video
ID : 1
Format : AVC
Format/Info : Advanced Video
Duration : 50 min 43 s
Bit rate : 3 488 kb/s
Width : 1 920 pixels
Height : 1 080 pixels
Display aspect ratio : 16:9
Frame rate mode : Constant
Frame rate : 29.970 (30000/1001) FPS
Color space : YUV
Chroma subsampling : 4:2:0
Bit depth : 8 bits
Scan type : Progressive
Bits/(Pixel*Frame) : 0.056
Stream size : 1.24 GiB (95%)
Codec configuration box : avc

ROH Wrestlinga

Audio
ID : 2
Format : AAC LC
Codec ID : mp4a-40-2
Duration : 50 min 43 s
Bit rate mode : Constant
Bit rate : 192 kb/s
Channel(s) : 2 channels
Channel layout : L R
Sampling rate : 48.0 kHz
Frame rate : 46.875 FPS
Compression mode : Lossy
Stream size : 69.3 MiB (5%)
Default : Yes
Alternate group : 1

ROH Wrestlinga

Complete name : ROH.Wrestling.Ep.511.2nd.July.2021.1080p.WEBRip.h264-TJ.mp4
Format : MPEG-4
Format profile : Base Media
Codec ID : isom
File size : 1.31 GiB
Duration : 50 min 43 s
Overall bit rate : 3 687 kb/s

Video
ID : 1
Format : AVC
Format/Info : Advanced Video
Duration : 50 min 43 s
Bit rate : 3 488 kb/s
Width : 1 920 pixels
Height : 1 080 pixels
Display aspect ratio : 16:9
Frame rate mode : Constant
Frame rate : 29.970 (30000/1001) FPS
Color space : YUV
Chroma subsampling : 4:2:0
Bit depth : 8 bits
Scan type : Progressive
Bits/(Pixel*Frame) : 0.056
Stream size : 1.24 GiB (95%)
Codec configuration box : avc

ROH Wrestlinga

Audio
ID : 2
Format : AAC LC
Codec ID : mp4a-40-2
Duration : 50 min 43 s
Bit rate mode : Constant
Bit rate : 192 kb/s
Channel(s) : 2 channels
Channel layout : L R
Sampling rate : 48.0 kHz
Frame rate : 46.875 FPS
Compression mode : Lossy
Stream size : 69.3 MiB (5%)
Default : Yes
Alternate group : 1

ROH Wrestlinga

Complete name : ROH.Wrestling.Ep.511.2nd.July.2021.1080p.WEBRip.h264-TJ.mp4
Format : MPEG-4
Format profile : Base Media
Codec ID : isom
File size : 1.31 GiB
Duration : 50 min 43 s
Overall bit rate : 3 687 kb/s

Video
ID : 1
Format : AVC
Format/Info : Advanced Video
Duration : 50 min 43 s
Bit rate : 3 488 kb/s
Width : 1 920 pixels
Height : 1 080 pixels
Display aspect ratio : 16:9
Frame rate mode : Constant
Frame rate : 29.970 (30000/1001) FPS
Color space : YUV
Chroma subsampling : 4:2:0
Bit depth : 8 bits
Scan type : Progressive
Bits/(Pixel*Frame) : 0.056
Stream size : 1.24 GiB (95%)
Codec configuration box : avc

ROH Wrestlinga

Audio
ID : 2
Format : AAC LC
Codec ID : mp4a-40-2
Duration : 50 min 43 s
Bit rate mode : Constant
Bit rate : 192 kb/s
Channel(s) : 2 channels
Channel layout : L R
Sampling rate : 48.0 kHz
Frame rate : 46.875 FPS
Compression mode : Lossy
Stream size : 69.3 MiB (5%)
Default : Yes
Alternate group : 1

ROH Wrestlinga

Complete name : ROH.Wrestling.Ep.511.2nd.July.2021.1080p.WEBRip.h264-TJ.mp4
Format : MPEG-4
Format profile : Base Media
Codec ID : isom
File size : 1.31 GiB
Duration : 50 min 43 s
Overall bit rate : 3 687 kb/s

Video
ID : 1
Format : AVC
Format/Info : Advanced Video
Duration : 50 min 43 s
Bit rate : 3 488 kb/s
Width : 1 920 pixels
Height : 1 080 pixels
Display aspect ratio : 16:9
Frame rate mode : Constant
Frame rate : 29.970 (30000/1001) FPS
Color space : YUV
Chroma subsampling : 4:2:0
Bit depth : 8 bits
Scan type : Progressive
Bits/(Pixel*Frame) : 0.056
Stream size : 1.24 GiB (95%)
Codec configuration box : avc

ROH Wrestlinga

Audio
ID : 2
Format : AAC LC
Codec ID : mp4a-40-2
Duration : 50 min 43 s
Bit rate mode : Constant
Bit rate : 192 kb/s
Channel(s) : 2 channels
Channel layout : L R
Sampling rate : 48.0 kHz
Frame rate : 46.875 FPS
Compression mode : Lossy
Stream size : 69.3 MiB (5%)
Default : Yes
Alternate group : 1

ROH Wrestlinga

Complete name : ROH.Wrestling.Ep.511.2nd.July.2021.1080p.WEBRip.h264-TJ.mp4
Format : MPEG-4
Format profile : Base Media
Codec ID : isom
File size : 1.31 GiB
Duration : 50 min 43 s
Overall bit rate : 3 687 kb/s

Video
ID : 1
Format : AVC
Format/Info : Advanced Video
Duration : 50 min 43 s
Bit rate : 3 488 kb/s
Width : 1 920 pixels
Height : 1 080 pixels
Display aspect ratio : 16:9
Frame rate mode : Constant
Frame rate : 29.970 (30000/1001) FPS
Color space : YUV
Chroma subsampling : 4:2:0
Bit depth : 8 bits
Scan type : Progressive
Bits/(Pixel*Frame) : 0.056
Stream size : 1.24 GiB (95%)
Codec configuration box : avc

ROH Wrestlinga

Audio
ID : 2
Format : AAC LC
Codec ID : mp4a-40-2
Duration : 50 min 43 s
Bit rate mode : Constant
Bit rate : 192 kb/s
Channel(s) : 2 channels
Channel layout : L R
Sampling rate : 48.0 kHz
Frame rate : 46.875 FPS
Compression mode : Lossy
Stream size : 69.3 MiB (5%)
Default : Yes
Alternate group : 1

ROH Wrestlinga

Complete name : ROH.Wrestling.Ep.511.2nd.July.2021.1080p.WEBRip.h264-TJ.mp4
Format : MPEG-4
Format profile : Base Media
Codec ID : isom
File size : 1.31 GiB
Duration : 50 min 43 s
Overall bit rate : 3 687 kb/s

Video
ID : 1
Format : AVC
Format/Info : Advanced Video
Duration : 50 min 43 s
Bit rate : 3 488 kb/s
Width : 1 920 pixels
Height : 1 080 pixels
Display aspect ratio : 16:9
Frame rate mode : Constant
Frame rate : 29.970 (30000/1001) FPS
Color space : YUV
Chroma subsampling : 4:2:0
Bit depth : 8 bits
Scan type : Progressive
Bits/(Pixel*Frame) : 0.056
Stream size : 1.24 GiB (95%)
Codec configuration box : avc

ROH Wrestlinga

Audio
ID : 2
Format : AAC LC
Codec ID : mp4a-40-2
Duration : 50 min 43 s
Bit rate mode : Constant
Bit rate : 192 kb/s
Channel(s) : 2 channels
Channel layout : L R
Sampling rate : 48.0 kHz
Frame rate : 46.875 FPS
Compression mode : Lossy
Stream size : 69.3 MiB (5%)
Default : Yes
Alternate group : 1

ROH Wrestlinga

Complete name : ROH.Wrestling.Ep.511.2nd.July.2021.1080p.WEBRip.h264-TJ.mp4
Format : MPEG-4
Format profile : Base Media
Codec ID : isom
File size : 1.31 GiB
Duration : 50 min 43 s
Overall bit rate : 3 687 kb/s

Video
ID : 1
Format : AVC
Format/Info : Advanced Video
Duration : 50 min 43 s
Bit rate : 3 488 kb/s
Width : 1 920 pixels
Height : 1 080 pixels
Display aspect ratio : 16:9
Frame rate mode : Constant
Frame rate : 29.970 (30000/1001) FPS
Color space : YUV
Chroma subsampling : 4:2:0
Bit depth : 8 bits
Scan type : Progressive
Bits/(Pixel*Frame) : 0.056
Stream size : 1.24 GiB (95%)
Codec configuration box : avc

ROH Wrestlinga

Audio
ID : 2
Format : AAC LC
Codec ID : mp4a-40-2
Duration : 50 min 43 s
Bit rate mode : Constant
Bit rate : 192 kb/s
Channel(s) : 2 channels
Channel layout : L R
Sampling rate : 48.0 kHz
Frame rate : 46.875 FPS
Compression mode : Lossy
Stream size : 69.3 MiB (5%)
Default : Yes
Alternate group : 1

ROH Wrestlinga

Complete name : ROH.Wrestling.Ep.511.2nd.July.2021.1080p.WEBRip.h264-TJ.mp4
Format : MPEG-4
Format profile : Base Media
Codec ID : isom
File size : 1.31 GiB
Duration : 50 min 43 s
Overall bit rate : 3 687 kb/s

Video
ID : 1
Format : AVC
Format/Info : Advanced Video
Duration : 50 min 43 s
Bit rate : 3 488 kb/s
Width : 1 920 pixels
Height : 1 080 pixels
Display aspect ratio : 16:9
Frame rate mode : Constant
Frame rate : 29.970 (30000/1001) FPS
Color space : YUV
Chroma subsampling : 4:2:0
Bit depth : 8 bits
Scan type : Progressive
Bits/(Pixel*Frame) : 0.056
Stream size : 1.24 GiB (95%)
Codec configuration box : avc

ROH Wrestlinga

Audio
ID : 2
Format : AAC LC
Codec ID : mp4a-40-2
Duration : 50 min 43 s
Bit rate mode : Constant
Bit rate : 192 kb/s
Channel(s) : 2 channels
Channel layout : L R
Sampling rate : 48.0 kHz
Frame rate : 46.875 FPS
Compression mode : Lossy
Stream size : 69.3 MiB (5%)
Default : Yes
Alternate group : 1

ROH Wrestlinga

Complete name : ROH.Wrestling.Ep.511.2nd.July.2021.1080p.WEBRip.h264-TJ.mp4
Format : MPEG-4
Format profile : Base Media
Codec ID : isom
File size : 1.31 GiB
Duration : 50 min 43 s
Overall bit rate : 3 687 kb/s

Video
ID : 1
Format : AVC
Format/Info : Advanced Video
Duration : 50 min 43 s
Bit rate : 3 488 kb/s
Width : 1 920 pixels
Height : 1 080 pixels
Display aspect ratio : 16:9
Frame rate mode : Constant
Frame rate : 29.970 (30000/1001) FPS
Color space : YUV
Chroma subsampling : 4:2:0
Bit depth : 8 bits
Scan type : Progressive
Bits/(Pixel*Frame) : 0.056
Stream size : 1.24 GiB (95%)
Codec configuration box : avc

ROH Wrestlinga

Audio
ID : 2
Format : AAC LC
Codec ID : mp4a-40-2
Duration : 50 min 43 s
Bit rate mode : Constant
Bit rate : 192 kb/s
Channel(s) : 2 channels
Channel layout : L R
Sampling rate : 48.0 kHz
Frame rate : 46.875 FPS
Compression mode : Lossy
Stream size : 69.3 MiB (5%)
Default : Yes
Alternate group : 1

ROH Wrestlinga

Complete name : ROH.Wrestling.Ep.511.2nd.July.2021.1080p.WEBRip.h264-TJ.mp4
Format : MPEG-4
Format profile : Base Media
Codec ID : isom
File size : 1.31 GiB
Duration : 50 min 43 s
Overall bit rate : 3 687 kb/s

Video
ID : 1
Format : AVC
Format/Info : Advanced Video
Duration : 50 min 43 s
Bit rate : 3 488 kb/s
Width : 1 920 pixels
Height : 1 080 pixels
Display aspect ratio : 16:9
Frame rate mode : Constant
Frame rate : 29.970 (30000/1001) FPS
Color space : YUV
Chroma subsampling : 4:2:0
Bit depth : 8 bits
Scan type : Progressive
Bits/(Pixel*Frame) : 0.056
Stream size : 1.24 GiB (95%)
Codec configuration box : avc

ROH Wrestlinga

Audio
ID : 2
Format : AAC LC
Codec ID : mp4a-40-2
Duration : 50 min 43 s
Bit rate mode : Constant
Bit rate : 192 kb/s
Channel(s) : 2 channels
Channel layout : L R
Sampling rate : 48.0 kHz
Frame rate : 46.875 FPS
Compression mode : Lossy
Stream size : 69.3 MiB (5%)
Default : Yes
Alternate group : 1

ROH Wrestlinga

Complete name : ROH.Wrestling.Ep.511.2nd.July.2021.1080p.WEBRip.h264-TJ.mp4
Format : MPEG-4
Format profile : Base Media
Codec ID : isom
File size : 1.31 GiB
Duration : 50 min 43 s
Overall bit rate : 3 687 kb/s

Video
ID : 1
Format : AVC
Format/Info : Advanced Video
Duration : 50 min 43 s
Bit rate : 3 488 kb/s
Width : 1 920 pixels
Height : 1 080 pixels
Display aspect ratio : 16:9
Frame rate mode : Constant
Frame rate : 29.970 (30000/1001) FPS
Color space : YUV
Chroma subsampling : 4:2:0
Bit depth : 8 bits
Scan type : Progressive
Bits/(Pixel*Frame) : 0.056
Stream size : 1.24 GiB (95%)
Codec configuration box : avc

ROH Wrestlinga

Audio
ID : 2
Format : AAC LC
Codec ID : mp4a-40-2
Duration : 50 min 43 s
Bit rate mode : Constant
Bit rate : 192 kb/s
Channel(s) : 2 channels
Channel layout : L R
Sampling rate : 48.0 kHz
Frame rate : 46.875 FPS
Compression mode : Lossy
Stream size : 69.3 MiB (5%)
Default : Yes
Alternate group : 1

ROH Wrestlinga

Complete name : ROH.Wrestling.Ep.511.2nd.July.2021.1080p.WEBRip.h264-TJ.mp4
Format : MPEG-4
Format profile : Base Media
Codec ID : isom
File size : 1.31 GiB
Duration : 50 min 43 s
Overall bit rate : 3 687 kb/s

Video
ID : 1
Format : AVC
Format/Info : Advanced Video
Duration : 50 min 43 s
Bit rate : 3 488 kb/s
Width : 1 920 pixels
Height : 1 080 pixels
Display aspect ratio : 16:9
Frame rate mode : Constant
Frame rate : 29.970 (30000/1001) FPS
Color space : YUV
Chroma subsampling : 4:2:0
Bit depth : 8 bits
Scan type : Progressive
Bits/(Pixel*Frame) : 0.056
Stream size : 1.24 GiB (95%)
Codec configuration box : avc

ROH Wrestlinga

Audio
ID : 2
Format : AAC LC
Codec ID : mp4a-40-2
Duration : 50 min 43 s
Bit rate mode : Constant
Bit rate : 192 kb/s
Channel(s) : 2 channels
Channel layout : L R
Sampling rate : 48.0 kHz
Frame rate : 46.875 FPS
Compression mode : Lossy
Stream size : 69.3 MiB (5%)
Default : Yes
Alternate group : 1

ROH Wrestlinga

Complete name : ROH.Wrestling.Ep.511.2nd.July.2021.1080p.WEBRip.h264-TJ.mp4
Format : MPEG-4
Format profile : Base Media
Codec ID : isom
File size : 1.31 GiB
Duration : 50 min 43 s
Overall bit rate : 3 687 kb/s

Video
ID : 1
Format : AVC
Format/Info : Advanced Video
Duration : 50 min 43 s
Bit rate : 3 488 kb/s
Width : 1 920 pixels
Height : 1 080 pixels
Display aspect ratio : 16:9
Frame rate mode : Constant
Frame rate : 29.970 (30000/1001) FPS
Color space : YUV
Chroma subsampling : 4:2:0
Bit depth : 8 bits
Scan type : Progressive
Bits/(Pixel*Frame) : 0.056
Stream size : 1.24 GiB (95%)
Codec configuration box : avc

ROH Wrestlinga

Audio
ID : 2
Format : AAC LC
Codec ID : mp4a-40-2
Duration : 50 min 43 s
Bit rate mode : Constant
Bit rate : 192 kb/s
Channel(s) : 2 channels
Channel layout : L R
Sampling rate : 48.0 kHz
Frame rate : 46.875 FPS
Compression mode : Lossy
Stream size : 69.3 MiB (5%)
Default : Yes
Alternate group : 1

ROH Wrestlinga

Complete name : ROH.Wrestling.Ep.511.2nd.July.2021.1080p.WEBRip.h264-TJ.mp4
Format : MPEG-4
Format profile : Base Media
Codec ID : isom
File size : 1.31 GiB
Duration : 50 min 43 s
Overall bit rate : 3 687 kb/s

Video
ID : 1
Format : AVC
Format/Info : Advanced Video
Duration : 50 min 43 s
Bit rate : 3 488 kb/s
Width : 1 920 pixels
Height : 1 080 pixels
Display aspect ratio : 16:9
Frame rate mode : Constant
Frame rate : 29.970 (30000/1001) FPS
Color space : YUV
Chroma subsampling : 4:2:0
Bit depth : 8 bits
Scan type : Progressive
Bits/(Pixel*Frame) : 0.056
Stream size : 1.24 GiB (95%)
Codec configuration box : avc

ROH Wrestlinga

Audio
ID : 2
Format : AAC LC
Codec ID : mp4a-40-2
Duration : 50 min 43 s
Bit rate mode : Constant
Bit rate : 192 kb/s
Channel(s) : 2 channels
Channel layout : L R
Sampling rate : 48.0 kHz
Frame rate : 46.875 FPS
Compression mode : Lossy
Stream size : 69.3 MiB (5%)
Default : Yes
Alternate group : 1

ROH Wrestlinga

Complete name : ROH.Wrestling.Ep.511.2nd.July.2021.1080p.WEBRip.h264-TJ.mp4
Format : MPEG-4
Format profile : Base Media
Codec ID : isom
File size : 1.31 GiB
Duration : 50 min 43 s
Overall bit rate : 3 687 kb/s

Video
ID : 1
Format : AVC
Format/Info : Advanced Video
Duration : 50 min 43 s
Bit rate : 3 488 kb/s
Width : 1 920 pixels
Height : 1 080 pixels
Display aspect ratio : 16:9
Frame rate mode : Constant
Frame rate : 29.970 (30000/1001) FPS
Color space : YUV
Chroma subsampling : 4:2:0
Bit depth : 8 bits
Scan type : Progressive
Bits/(Pixel*Frame) : 0.056
Stream size : 1.24 GiB (95%)
Codec configuration box : avc

ROH Wrestlinga

Audio
ID : 2
Format : AAC LC
Codec ID : mp4a-40-2
Duration : 50 min 43 s
Bit rate mode : Constant
Bit rate : 192 kb/s
Channel(s) : 2 channels
Channel layout : L R
Sampling rate : 48.0 kHz
Frame rate : 46.875 FPS
Compression mode : Lossy
Stream size : 69.3 MiB (5%)
Default : Yes
Alternate group : 1

ROH Wrestlinga

Complete name : ROH.Wrestling.Ep.511.2nd.July.2021.1080p.WEBRip.h264-TJ.mp4
Format : MPEG-4
Format profile : Base Media
Codec ID : isom
File size : 1.31 GiB
Duration : 50 min 43 s
Overall bit rate : 3 687 kb/s

Video
ID : 1
Format : AVC
Format/Info : Advanced Video
Duration : 50 min 43 s
Bit rate : 3 488 kb/s
Width : 1 920 pixels
Height : 1 080 pixels
Display aspect ratio : 16:9
Frame rate mode : Constant
Frame rate : 29.970 (30000/1001) FPS
Color space : YUV
Chroma subsampling : 4:2:0
Bit depth : 8 bits
Scan type : Progressive
Bits/(Pixel*Frame) : 0.056
Stream size : 1.24 GiB (95%)
Codec configuration box : avc

ROH Wrestlinga

Audio
ID : 2
Format : AAC LC
Codec ID : mp4a-40-2
Duration : 50 min 43 s
Bit rate mode : Constant
Bit rate : 192 kb/s
Channel(s) : 2 channels
Channel layout : L R
Sampling rate : 48.0 kHz
Frame rate : 46.875 FPS
Compression mode : Lossy
Stream size : 69.3 MiB (5%)
Default : Yes
Alternate group : 1

ROH Wrestlinga

Complete name : ROH.Wrestling.Ep.511.2nd.July.2021.1080p.WEBRip.h264-TJ.mp4
Format : MPEG-4
Format profile : Base Media
Codec ID : isom
File size : 1.31 GiB
Duration : 50 min 43 s
Overall bit rate : 3 687 kb/s

Video
ID : 1
Format : AVC
Format/Info : Advanced Video
Duration : 50 min 43 s
Bit rate : 3 488 kb/s
Width : 1 920 pixels
Height : 1 080 pixels
Display aspect ratio : 16:9
Frame rate mode : Constant
Frame rate : 29.970 (30000/1001) FPS
Color space : YUV
Chroma subsampling : 4:2:0
Bit depth : 8 bits
Scan type : Progressive
Bits/(Pixel*Frame) : 0.056
Stream size : 1.24 GiB (95%)
Codec configuration box : avc

ROH Wrestlinga

Audio
ID : 2
Format : AAC LC
Codec ID : mp4a-40-2
Duration : 50 min 43 s
Bit rate mode : Constant
Bit rate : 192 kb/s
Channel(s) : 2 channels
Channel layout : L R
Sampling rate : 48.0 kHz
Frame rate : 46.875 FPS
Compression mode : Lossy
Stream size : 69.3 MiB (5%)
Default : Yes
Alternate group : 1

ROH Wrestlinga

Complete name : ROH.Wrestling.Ep.511.2nd.July.2021.1080p.WEBRip.h264-TJ.mp4
Format : MPEG-4
Format profile : Base Media
Codec ID : isom
File size : 1.31 GiB
Duration : 50 min 43 s
Overall bit rate : 3 687 kb/s

Video
ID : 1
Format : AVC
Format/Info : Advanced Video
Duration : 50 min 43 s
Bit rate : 3 488 kb/s
Width : 1 920 pixels
Height : 1 080 pixels
Display aspect ratio : 16:9
Frame rate mode : Constant
Frame rate : 29.970 (30000/1001) FPS
Color space : YUV
Chroma subsampling : 4:2:0
Bit depth : 8 bits
Scan type : Progressive
Bits/(Pixel*Frame) : 0.056
Stream size : 1.24 GiB (95%)
Codec configuration box : avc

ROH Wrestlinga

Audio
ID : 2
Format : AAC LC
Codec ID : mp4a-40-2
Duration : 50 min 43 s
Bit rate mode : Constant
Bit rate : 192 kb/s
Channel(s) : 2 channels
Channel layout : L R
Sampling rate : 48.0 kHz
Frame rate : 46.875 FPS
Compression mode : Lossy
Stream size : 69.3 MiB (5%)
Default : Yes
Alternate group : 1

ROH Wrestlinga

 

[collapse]

 

 

https://dx-tv.com/

You May Also Like