ROH Wrestling 11 Jan 2021 Free Online DX-TV

ROH Wrestling 11 Jan 2021 Free Online DX-TV

ROH Wrestling 11 Jan

 ROH Wrestling 11 Jan

 

Download Links with premium High Speed   

 

 

nitroflare.com

http://shrt10.com/nlNMgLm
http://shrt10.com/2eoLNzH

 

 

rapidgator.net

http://shrt10.com/daZaTaHGI
http://shrt10.com/9eGkob

 

 

uploaded.net

http://shrt10.com/NVgDCU0yX
http://shrt10.com/gR1POU87Z

 

 

uploadgig.com

http://shrt10.com/xnqWCh0rG
http://shrt10.com/1YVuAelqJ

 

Watch ROH Wrestling online

 

Server 1

 

 

 

 

ROH Wrestling 11 Jan

 

 

 

 

Server-2

 

 

 

 

watch now

 

 

Uploaded By Site DX-TV.com

 

Complete name : ROH.Wrestling.2021.01.11.720p.FITETV.x264-Star.mkv
Format : Matroska
Format version : Version 4
File size : 1.35 GiB
Duration : 47 min 18 s
Overall bit rate : 4 098 kb/s

ROH Wrestling 11 Jan

Video
ID : 1
Format : AVC
Format/Info : Advanced Video
Codec ID : V_MPEG4/ISO/AVC
Duration : 47 min 18 s
Bit rate : 4 000 kb/s
Width : 1 280 pixels
Height : 720 pixels
Display aspect ratio : 16:9
Frame rate mode : Constant
Frame rate : 29.970 FPS
Color space : YUV
Chroma subsampling : 4:2:0
Bit depth : 8 bits
Scan type : Progressive
Bits/(Pixel*Frame) : 0.145
Stream size : 1.28 GiB (95%)
Forced : No
Color range : Limited
Color primaries : BT.709
Transfer characteristics : BT.709
Matrix coefficients : BT.709

ROH Wrestling 11 Jan

Audio
ID : 2
Format : AC-3
Format/Info : Audio Coding 3
Commercial name : Dolby Digital
Codec ID : A_AC3
Duration : 47 min 18 s
Bit rate mode : Constant
Bit rate : 128 kb/s
Channel(s) : 2 channels
Channel layout : L R
Sampling rate : 48.0 kHz
Frame rate : 31.250 FPS
Compression mode : Lossy
Delay relative to video : -5 ms
Stream size : 43.3 MiB (3%)
Title : Stereo
Service kind : Complete Main
Default : Yes
Forced : No

ROH Wrestling  

Complete name : ROH.Wrestling.2021.01.11.1080p.FITETV.x264-Star.mkv
Format : Matroska
Format version : Version 4
File size : 2.67 GiB
Duration : 47 min 18 s
Overall bit rate : 8 070 kb/s

Video
ID : 1
Format : AVC
Format/Info : Advanced Video
Duration : 47 min 18 s
Bit rate : 8 000 kb/s
Width : 1 920 pixels
Height : 1 080 pixels
Display aspect ratio : 16:9
Frame rate mode : Constant
Frame rate : 29.970FPS
Color space : YUV
Chroma subsampling : 4:2:0
Bit depth : 8 bits
Scan type : Progressive
Bits/(Pixel*Frame) : 0.129
Stream size : 2.57 GiB (96%)
Forced : No
Color range : Limited
Color primaries : BT.709
Transfer characteristics : BT.709
Matrix coefficients : BT.709

ROH Wrestling  

Audio
ID : 2
Format : AC-3
Format/Info : Audio Coding 3
Commercial name : Dolby Digital
Codec ID : A_AC3
Duration : 47 min 18 s
Bit rate mode : Constant
Bit rate : 128 kb/s
Channel(s) : 2 channels
Channel layout : L R
Sampling rate : 48.0 kHz
Frame rate : 31.250 FPS
Compression mode : Lossy
Delay relative to video : -5 ms
Stream size : 43.3 MiB (2%)
Title : Stereo
Service kind : Complete Main
Default : Yes
Forced : No

ROH Wrestling  

 

https://dx-tv.com/

Leave a Reply

Your email address will not be published. Required fields are marked *

This site uses Akismet to reduce spam. Learn how your comment data is processed.