ROH State Of The Art San Antonio IPPV 2018 06 15 WEBRip TJ Watch / Download

ROH State Of The Art San Antonio IPPV 2018 06 15 WEBRip TJ Watch / Download

 

 

 

 


 

 

dx-tv.com

 

 

 

 

Complete name : ROH.State.Of.The.Art.San.Antonio.15th.June.2018.WEBRip.h264-TJ.mp4
Format : MPEG-4
Format profile : Base Media / Version 2
Codec ID : mp42
File size : 1.81 GiB
Duration : 2h 48mn
Overall bit rate : 1 537 Kbps

Video
ID : 1
Format : AVC
Format/Info : Advanced Video Codec
Codec ID : avc1
Codec ID/Info : Advanced Video Coding
Duration : 2h 48mn
Bit rate mode : Variable
Bit rate : 1 400 Kbps
Width : 720 pixels
Height : 406 pixels
Display aspect ratio : 16:9
Frame rate mode : Variable
Frame rate : 30.000 fps
Minimum frame rate : 20.829 fps
Maximum frame rate : 30.000 fps
Color space : YUV
Chroma subsampling : 4:2:0
Bit depth : 8 bits
Scan type : Progressive
Bits/(Pixel*Frame) : 0.160
Stream size : 1.65 GiB (91%)

Audio
ID : 2
Format : AAC
Format/Info : Advanced Audio Codec
Format profile : LC
Codec ID : 40
Duration : 2h 48mn
Bit rate mode : Variable
Bit rate : 128 Kbps
Channel(s) : 2 channels
Channel positions : Front: L R
Sampling rate : 48.0 KHz
Compression mode : Lossy
Stream size : 155 MiB (8%)
Title : Stereo
Encoded date : UTC 2018-06-16 07:53:16
Tagged date : UTC 2018-06-16 07:53:16

 

 

 

 

 

 

ROH State Of The Art San Antonio IPPV 2018 06 15 WEBRip TJ Watch / Download

 

 

 

 

Watch online

 

 

Waiting finish converting video

 

 

Server 1

 

 

 

 

 

 

 

 

 

 

 

 

 

 

 

Server 2

 

 

 

 

 

 


 

 

 

 

 

Uploaded By Site DX-TV.com

 

 

 

open rar file to see this password

 

 

 

 

The password : DX-TV.com

 

 

 

 

 

Uploaded.net + rapidgator.net

 

 

 

 
http://shrt10.com/6AwbxHA

 
http://shrt10.com/wd53mL
 

 

 

 

 

 

 

 

ROH State Of The Art San Antonio IPPV 2018 06 15 WEBRip TJ Watch / Download