ROH State Of The Art San Antonio IPPV 2018 06 15 1080p WEBRip TJ Watch / Downloa

ROH State Of The Art San Antonio IPPV 2018 06 15 1080p WEBRip TJ Watch / Download

 

 

 

 


 

dx-tv.com

 

 

 

 

 

Complete name : ROH.2018.06.15.State.Of.The.Art.San.Antonio.1080p.WEB.h264-HEEL.mp4
Format : MPEG-4
Format profile : Base Media
Codec ID : isom
File size : 5.51 GiB
Duration : 2h 48mn
Overall bit rate : 4 678 Kbps

Video
ID : 1
Format : AVC
Format/Info : Advanced Video Codec
Codec ID : avc1
Codec ID/Info : Advanced Video Coding
Duration : 2h 48mn
Bit rate mode : Variable
Bit rate : 4 538 Kbps
Width : 1 920 pixels
Height : 1 080 pixels
Display aspect ratio : 16:9
Frame rate mode : Variable
Frame rate : 30.000 fps
Minimum frame rate : 20.829 fps
Maximum frame rate : 30.303 fps
Color space : YUV
Chroma subsampling : 4:2:0
Bit depth : 8 bits
Scan type : Progressive
Bits/(Pixel*Frame) : 0.073
Stream size : 5.34 GiB (97%)

Audio
ID : 2
Format : AAC
Format/Info : Advanced Audio Codec
Format profile : LC
Codec ID : 40
Duration : 2h 48mn
Bit rate mode : Constant
Bit rate : 129 Kbps
Channel(s) : 2 channels
Channel positions : Front: L R
Sampling rate : 48.0 KHz
Compression mode : Lossy
Stream size : 156 MiB (3%)

 

 

 

 

 

ROH State Of The Art San Antonio IPPV 2018 06 15 1080p WEBRip TJ Watch / Download

 

 

 

 

Watch online

 

 

Waiting finish converting video

 

 

Server 1

 

 

 

 

 

 

 

 

 

 

 

 

 

 

 

Server 2

 

 

 

 

 

 


 

 

 

 

Uploaded By Site DX-TV.com

 

 

 

open rar file to see this password

 

 

 

 

The password : DX-TV.com

 

 

 

 

 

Uploaded.net + rapidgator.net

 

 

 

 

 

 

 

http://shrt10.com/so8C3
 

http://shrt10.com/bv87m
 

http://shrt10.com/60Qz9

 
http://shrt10.com/KxM9DSl
 

 

 

 

 

 

 

ROH State Of The Art San Antonio IPPV 2018 06 15 1080p WEBRip TJ Watch / Download