ROH Saturday Night at Center Stage 2019 1080p

ROH Saturday Night at Center Stage 2019 1080p DX-TV

 

 

 

ROH Saturday Night at Center Stage 2019
ROH Saturday Night at Center Stage 2019

 

 

 

 

 

dx-tv.com

 

 

 

shrt10.com

 

 

 

 

 

 

 

 

 

 

ROH Saturday Night at Center Stage 2019 1080p

 

 

 

 

 

 

 

 

 

 

 

 

ROH Saturday Night at Center Stage 2019 1080p

 

 

 

 

 

Complete name : ROH Saturday Night at Center Stage PPV 24-08-2019 1080p WEB x264 DX-TV.mp4
Format : MPEG-4
Format profile : Base Media
Codec ID : isom (isom/iso2/avc1/mp41)
File size : 8.57 GiB
Duration : 3 h 59 min
Overall bit rate mode : Constant
Overall bit rate : 5 111 kb/s
Codirector : codirector
Production studio : studio
ContentType : Unknown Type
Writing application : Lavf55.33.100

Video
ID : 1
Format : AVC
Format/Info : Advanced Video Codec
Format settings, GOP : M=3, N=60
Codec ID : avc1
Codec ID/Info : Advanced Video Coding
Duration : 3 h 59 min
Bit rate mode : Constant
Bit rate : 5 000 kb/s
Width : 1 920 pixels
Height : 1 080 pixels
Display aspect ratio : 16:9
Frame rate mode : Constant
Frame rate : 30.000 FPS
Color space : YUV
Chroma subsampling : 4:2:0
Bit depth : 8 bits
Scan type : Progressive
Bits/(Pixel*Frame) : 0.080
Stream size : 8.38 GiB (98%)
Codec configuration box : avcC

Audio
ID : 2
Format : AAC LC
Format/Info : Advanced Audio Codec Low Complexity
Codec ID : mp4a-40-2
Duration : 3 h 59 min
Source duration : 3 h 59 min
Bit rate mode : Constant
Bit rate : 102 kb/s
Channel(s) : 2 channels
Channel layout : L R
Sampling rate : 48.0 kHz
Frame rate : 46.875 FPS (1024 SPF)
Compression mode : Lossy
Stream size : 176 MiB (2%)
Source stream size : 176 MiB (2%)
Default : Yes
Alternate group : 1

 

 

 

 

 

 

Watch online

 

 

Waiting finish converting video

 

 

Server 1

 

 

 

 

 

 

 

 

 

 

 

 

 

 

 

Server 2

 

 

 

 

 

 

 

 

 

 

 

 

 

 

 

 

Uploaded By Site DX-TV.com

 

 

 

https://shrt10.com
https://shrt10.com

 

 

 


 

 

 

 


 

 

bitster.cz

 

bitster.cz

 

 

multiup.org

 

multiup.org

 

 

 

nitroflare.com

 

nitroflare.com

 

 

 

rapidgator.net

 

 

rapidgator.net

 

 

uploaded.net

 

 

uploaded.net

 

 

 

uploadgig.com

 

 

uploadgig.com

 

 

Leave a Reply

Your email address will not be published. Required fields are marked *

WhatsApp chat
%d bloggers like this: