ROH NJPW 2018 11 09 Global Wars 2018 Night 3 1080p WEB Me4Life

ROH NJPW 2018 11 09 Global Wars 2018 Night 3 1080p WEB Me4Life

 

 

 

 


 

 

 

dx-tv.com

 

 

 

 

 

Complete name : ROH.NJPW.2018.11.09.Global.Wars.2018.Night.3.1080p.WEB.h264.Me4Life.mp4
Format : MPEG-4
Format profile : Base Media
File size : 6.59 GiB
Duration : 3 h 12 min
Overall bit rate : 4 900 kb/s
Codirector : codirector
Production studio : studio
ContentType : Unknown Type
Writing application : Lavf55.33.100

Video
ID : 1
Format : AVC
Format/Info : Advanced Video Codec
Codec ID : avc1
Codec ID/Info : Advanced Video Coding
Duration : 3 h 12 min
Bit rate : 4 777 kb/s
Width : 1 920 pixels
Height : 1 080 pixels
Display aspect ratio : 16:9
Frame rate mode : Variable
Frame rate : 30.000 FPS
Color space : YUV
Chroma subsampling : 4:2:0
Bit depth : 8 bits
Scan type : Progressive
Bits/(Pixel*Frame) : 0.077
Stream size : 6.43 GiB (97%)

Audio
ID : 2
Format : AAC
Format/Info : Advanced Audio Codec
Format profile : LC
Codec ID : mp4a-40-2
Duration : 3 h 12 min
Bit rate mode : Constant
Bit rate : 112 kb/s
Channel(s) : 2 channels
Channel positions : Front: L R
Sampling rate : 48.0 kHz
Frame rate : 46.875 FPS (1024 SPF)
Compression mode : Lossy
Stream size : 155 MiB (2%)
Default : Yes
Alternate group : 1

 

 

ROH NJPW 2018 11 09 Global Wars 2018 Night 3 1080p WEB Me4Life

 

 

 

 

Watch online

 

 

Waiting finish converting video

 

 

Server 1

 

 

 

 

 

 

 

 

 

 

 

 

 

 

 

Server 2

 

 

 

 

 

 

 


 

 

 

 

 

 

Uploaded By Site DX-TV.com

 

 

 

open rar file to see this password

 

 

 

 

The password : DX-TV.com

 

 

 

 

Uploaded.net + rapidgator.net

 

 

 

 

 

 
http://shrt10.com/OAVtys
 

 

 
http://shrt10.com/eOdHC
 

 

 
http://shrt10.com/Pb4c
 

 

 
http://shrt10.com/iH5qkJ
 

 

 

 

 

 

 

 

ROH NJPW 2018 11 09 Global Wars 2018 Night 3 1080p WEB Me4Life

Leave a Reply

This site uses Akismet to reduce spam. Learn how your comment data is processed.