ROH NJPW 2018 11 08 Global Wars 2018 Night 2 720p WEB H33B

ROH NJPW 2018 11 08 Global Wars 2018 Night 2 720p WEB H33B

 

 

 

 


 

dx-tv.com

 

 

 

 

 

Complete name : ROH.NJPW.2018.11.08.Global.Wars.2018.Night.2.720p.WEB.h264-H33B.mp4
Format : MPEG-4
Format profile : Base Media
Codec ID : mp42
File size : 4.01 GiB
Duration : 3h 3mn
Overall bit rate : 3 130 Kbps
Encoded date : UTC 2018-11-09 04:20:42
Tagged date : UTC 2018-11-09 04:23:47

Video
ID : 1
Format : AVC
Format/Info : Advanced Video Codec
Codec ID/Info : Advanced Video Coding
Duration : 3h 3mn
Duration_LastFrame : 6ms
Bit rate mode : Constant
Bit rate : 3 000 Kbps
Width : 1 280 pixels
Height : 720 pixels
Display aspect ratio : 16:9
Frame rate mode : Constant
Frame rate : 30.000 fps
Color space : YUV
Chroma subsampling : 4:2:0
Bit depth : 8 bits
Scan type : Progressive
Bits/(Pixel*Frame) : 0.109
Stream size : 3.84 GiB (96%)
Title : Core Media Video
Encoded date : UTC 2018-11-09 04:20:42
Tagged date : UTC 2018-11-09 04:23:47

Audio
ID : 2
Format : AAC
Format/Info : Advanced Audio Codec
Format profile : LC
Codec ID : 40
Duration : 3h 3mn
Bit rate mode : Variable
Bit rate : 125 Kbps
Maximum bit rate : 128 Kbps
Channel(s) : 2 channels
Channel positions : Front: L R
Sampling rate : 48.0 KHz
Compression mode : Lossy
Stream size : 164 MiB (4%)
Title : Core Media Audio
Encoded date : UTC 2018-11-09 04:20:42
Tagged date : UTC 2018-11-09 04:23:47

 

ROH NJPW 2018 11 08 Global Wars 2018 Night 2 720p WEB H33B

 

 

 

 

Watch online

 

 

Waiting finish converting video

 

 

Server 1

 

 

 

 

 

 

 

 

Server 2

 

 

 

 

 

 

 


 

 

 

 

Uploaded By Site DX-TV.com

 

 

 

open rar file to see this password

 

 

 

 

The password : DX-TV.com

 

 

 

 

Uploaded.net + rapidgator.net

 

 

 

 

 

 

http://shrt10.com/8fIW15P

 

 

http://shrt10.com/dtG6oGu
 

 

 

 

 

 

ROH NJPW 2018 11 08 Global Wars 2018 Night 2 720p WEB H33B