ROH NJPW 2018 11 08 Global Wars 2018 Night 2 1080p WEB H33B

ROH NJPW 2018 11 08 Global Wars 2018 Night 2 1080p WEB H33B

 

 

 

 

 

 

 

 

 

dx-tv.com

 

 

Complete name : ROH.NJPW.2018.11.08.Global.Wars.2018.Night.2.1080p.WEB.h264-H33B.mp4
Format : MPEG-4
Format profile : Base Media
Codec ID : mp42
File size : 6.53 GiB
Duration : 3h 3mn
Overall bit rate : 5 098 Kbps
Encoded date : UTC 2018-11-09 04:29:12
Tagged date : UTC 2018-11-09 04:31:56

Video
ID : 1
Format : AVC
Format/Info : Advanced Video Codec
Codec ID : avc1
Codec ID/Info : Advanced Video Coding
Duration : 3h 3mn
Duration_LastFrame : 8ms
Bit rate mode : Constant
Bit rate : 5 000 Kbps
Width : 1 920 pixels
Height : 1 080 pixels
Display aspect ratio : 16:9
Frame rate mode : Constant
Frame rate : 30.000 fps
Color space : YUV
Chroma subsampling : 4:2:0
Bit depth : 8 bits
Scan type : Progressive
Bits/(Pixel*Frame) : 0.080
Stream size : 6.40 GiB (98%)
Title : Core Media Video
Encoded date : UTC 2018-11-09 04:29:12
Tagged date : UTC 2018-11-09 04:31:56

Audio
ID : 2
Format : AAC
Format/Info : Advanced Audio Codec
Format profile : LC
Codec ID : 40
Duration : 3h 3mn
Bit rate mode : Variable
Bit rate : 93.4 Kbps
Maximum bit rate : 96.8 Kbps
Channel(s) : 2 channels
Channel positions : Front: L R
Sampling rate : 48.0 KHz
Compression mode : Lossy
Stream size : 122 MiB (2%)
Title : Core Media Audio
Encoded date : UTC 2018-11-09 04:29:12
Tagged date : UTC 2018-11-09 04:31:56

 

 

ROH NJPW 2018 11 08 Global Wars 2018 Night 2 1080p WEB H33B

 

 

 

 

Watch online

 

 

Waiting finish converting video

 

 

Server 1

 

 

 

 

 

 

 

Server 2

 

 

 

 

 

 

 


 

 

 

 

 

Uploaded By Site DX-TV.com

 

 

 

open rar file to see this password

 

 

 

 

The password : DX-TV.com

 

 

 

 

Uploaded.net + rapidgator.net

 

 

 

 

 

 
http://shrt10.com/5iCiTQ1
 

 

 
http://shrt10.com/2zDAlIDq
 

 

 
http://shrt10.com/jeaK0SB
 

 

 
http://shrt10.com/El7Xq

 

 

 

 

ROH NJPW 2018 11 08 Global Wars 2018 Night 2 1080p WEB H33B