ROH Honor United Newport 26/10/2019

Watch ROH Honor United Newport 26/10/2019 720p DX-TV

 

 

Honor United Newport

 

 

 

 

dx-tv.com

 

 

 

 

Watch ROH Honor United Newport 26/10/2019

 

 

 

 

 

Complete name : 2019.10.27.ROH.Honor.United.Newport.FITE.720p.Me4Life.mp4
Format : MPEG-4
Format profile : Base Media
Codec ID : isom
File size : 2.56 GiB
Duration : 3 h 5 min
Overall bit rate : 1 976 kb/s

Video
ID : 1
Format : AVC
Format/Info : Advanced Video Codec
Codec ID/Info : Advanced Video Coding
Duration : 3 h 5 min
Bit rate : 1 862 kb/s
Width : 1 280 pixels
Height : 720 pixels
Display aspect ratio : 16:9
Frame rate mode : Variable
Frame rate : 30.000 FPS
Color space : YUV
Chroma subsampling : 4:2:0
Bit depth : 8 bits
Scan type : Progressive
Bits/(Pixel*Frame) : 0.067
Stream size : 2.41 GiB (94%)
Codec configuration box : avcC

Audio
ID : 2
Format : AAC LC
Format/Info : Advanced Audio Codec Low Complexity
Codec ID : mp4a-40-2
Duration : 3 h 5 min
Bit rate mode : Constant
Bit rate : 105 kb/s
Channel(s) : 2 channels
Channel layout : L R
Sampling rate : 48.0 kHz
Frame rate : 46.875 FPS (1024 SPF)
Compression mode : Lossy
Stream size : 139 MiB (5%)
Default : Yes

 

 

 

 

 

 

Watch online

 

 

Waiting finish converting video

 

 

Server 1

 

 

 

 

 

 

 

watch now

 

 

 

 

 

 

Server 2

 

 

 

 

 

 

 

watch now

 

 

 

 

 

 

 

 

Uploaded By Site DX-TV.com

 

 

 

 

 

Watch ROH Honor United Newport 26/10/2019

 

 

 

 

 

Recommended For Free

 

 

 

4downfiles.org

 

 

 

earn4files.com

 

 

 

 

dropmega.com

 

 

 

 

Download with high speed with Premium account

 

 

 

 

nitroflare.com

 

 

 

rapidgator.net

 

 

 

uploaded.net

 

 

 

uploadgig.com

 

 

 

 

 

 

 48 total views,  3 views today

%d bloggers like this:
Optimized with PageSpeed Ninja