ROH Death Before Dishonor 2021 09 12 Online Replay

ROH Death Before Dishonor 2021 09 12 1080p Full Show Online Free Replay DX-TV

ROH Death Before

 

 ROH Death Before

 

 

 

Download Links with premium High Speed
 

 


 

Dopapk

 

 

Show Links

 

 

 

 

 

 

 

Nitroflare

 

 

Show Links

 

 

https://shrt10.com/nWXPf
https://shrt10.com/4o8mg6WQ
https://shrt10.com/G9nwI

 

 

 

 

Rapidgator

 

 

Show Links

 

 

https://shrt10.com/11zdZtc
https://shrt10.com/gxbE8Vla
https://shrt10.com/tnKYwp

 

 

 

 

 

Uploaded
 

 

 

Show Links

 

 

https://shrt10.com/Nc0vsrN0K
https://shrt10.com/51KY56

 

 

 

 

 

 

 

Watch online

 

Server 1

 

 

 

 

watch now

 

 

 

 

Server-2

 

 

 

 

ROH Death Before

 

 

 

|Server-3

 

 

 

 

watch now

 

 

Uploaded By Site DX-TV.com

 

https://dx-tv.com/roh-wrestling-online-2021-08-06-1080p-free-replay/

 

 

Open Info Show

 

 

Complete name : DX-TV.COM- ROH Death Before Dishonor 2021 09 12 540p WEB h264 By DX-TV.COM.mp4
Format : MPEG-4
Format profile : Base Media
Codec ID : isom
File size : 3.34 GiB
Duration : 4 h 5 min
Overall bit rate mode : Variable
Overall bit rate : 1 952 kb/s

Video
ID : 1
Format : AVC
Duration : 4 h 5 min
Source duration : 4 h 5 min
Bit rate mode : Variable
Bit rate : 1 754 kb/s
Maximum bit rate : 1 915 kb/s
Width : 960 pixels
Height : 540 pixels
Display aspect ratio : 16:9
Frame rate mode : Variable
Frame rate : 29.970 (30000/1001) FPS
Minimum frame rate : 29.412 FPS
Maximum frame rate : 30.303 FPS
Standard : NTSC
Color space : YUV
Chroma subsampling : 4:2:0
Bit depth : 8 bits
Scan type : Progressive
Bits/(Pixel*Frame) : 0.113
Stream size : 3.00 GiB (90%)
Source stream size : 3.00 GiB (90%)
Color range : Limited
Color primaries : BT.709
Transfer characteristics : BT.709
Matrix coefficients : BT.709
Codec configuration box : avcC

ROH Death Before

Audio
ID : 2
Format : AAC LC
Format/Info : Advanced Audio
Codec ID : mp4a-40-2
Duration : 4 h 5 min
Bit rate mode : Variable
Bit rate : 192 kb/s
Maximum bit rate : 201 kb/s
Channel(s) : 2 channels
Channel layout : L R
Sampling rate : 48.0 kHz
Frame rate : 46.875 FPS (1024 SPF)
Compression mode : Lossy
Stream size : 332 MiB (10%)
Default : Yes
Alternate group : 1

General
Complete name : DX-TV.COM- ROH Death Before Dishonor 2021 09 12 720p WEB h264 By DX-TV.COM.mp4
Format : MPEG-4
Format profile : Base Media
Codec ID : isom
File size : 4.61 GiB
Duration : 4 h 5 min
Overall bit rate mode : Variable
Overall bit rate : 2 690 kb/s

Video
ID : 1
Format : AVC
Duration : 4 h 5 min
Bit rate mode : Variable
Bit rate : 2 490 kb/s
Maximum bit rate : 2 703 kb/s
Width : 1 280 pixels
Height : 720 pixels
Display aspect ratio : 16:9
Frame rate mode : Variable
Frame rate : 29.970 (30000/1001) FPS
Minimum frame rate : 29.412 FPS
Maximum frame rate : 30.303 FPS
Standard : NTSC
Color space : YUV
Chroma subsampling : 4:2:0
Bit depth : 8 bits
Scan type : Progressive
Bits/(Pixel*Frame) : 0.090
Stream size : 4.27 GiB (93%)
Color range : Limited
Color primaries : BT.709
Transfer characteristics : BT.709
Matrix coefficients : BT.709
Codec configuration box : avc

ROH Death Before

Audio
ID : 2
Format : AAC LC
Format/Info : Advanced Audio
Codec ID : mp4a-40-2
Duration : 4 h 5 min
Bit rate mode : Constant
Bit rate : 192 kb/s
Channel(s) : 2 channels
Channel layout : L R
Sampling rate : 48.0 kHz
Frame rate : 46.875 FPS (1024 SPF)
Compression mode : Lossy
Stream size : 333 MiB (7%)
Default : Yes
Alternate group : 1

Complete name : DX-TV.COM- ROH Death Before Dishonor 2021 09 12 1080p WEB h264 By DX-TV.COM.mp4
Format : MPEG-4
Format profile : Base Media
Codec ID : isom
File size : 7.52 GiB
Duration : 4 h 6 min
Overall bit rate mode : Variable
Overall bit rate : 4 366 kb/s

ROH Death Before

Video
ID : 1
Format : AVC
Duration : 4 h 6 min
Bit rate mode : Variable
Bit rate : 4 166 kb/s
Maximum bit rate : 4 506 kb/s
Width : 1 920 pixels
Height : 1 080 pixels
Display aspect ratio : 16:9
Frame rate mode : Variable
Frame rate : 29.970 (30000/1001) FPS
Minimum frame rate : 29.412 FPS
Maximum frame rate : 30.303 FPS
Standard : NTSC
Color space : YUV
Chroma subsampling : 4:2:0
Bit depth : 8 bits
Scan type : Progressive
Bits/(Pixel*Frame) : 0.067
Stream size : 7.17 GiB (95%)
Color range : Limited
Color primaries : BT.709
Transfer characteristics : BT.709
Matrix coefficients : BT.709
Codec configuration box : avc

ROH Death Before

Audio
ID : 2
Format : AAC LC
Format/Info : Advanced Audio
Codec ID : mp4a-40-2
Duration : 4 h 6 min
Bit rate mode : Constant
Bit rate : 192 kb/s
Channel(s) : 2 channels
Channel layout : L R
Sampling rate : 48.0 kHz
Frame rate : 46.875 FPS (1024 SPF)
Compression mode : Lossy
Stream size : 334 MiB (4%)
Default : Yes
Alternate group : 1

 

 

https://dx-tv.com/

 

 

 

 

 

Leave a Reply

Your email address will not be published. Required fields are marked *

This site uses Akismet to reduce spam. Learn how your comment data is processed.