ROH Bound by Honor 2020 1080p

Watch ROH Bound by Honor 2020 1080p DX-TV

ROH

 

 ROH Bound by Honor

 

 

ROH Bound by Honor 2020 1080p

 

Complete name : ROH.Bound.by.Honor.1080p.FITE.Me4Life.mp4
Format : MPEG-4
Format profile : Base Media
Codec ID : isom
File size : 5.23 GiB
Duration : 3 h 2 min
Overall bit rate : 4 108 kb/s
Codirector : codirector
Production studio : studio
ContentType : Unknown Type
Writing application : Lavf55.33.100

Video
ID : 1
Format : AVC
Duration : 3 h 2 min
Bit rate : 3 990 kb/s
Width : 1 920 pixels
Height : 1 080 pixels
Display aspect ratio : 16:9
Frame rate mode : ROH
Frame rate : 30.000 FPS
Color space : YUV
Chroma subsampling : 4:2:0
Bit depth : 8 bits
Scan type : Progressive
Bits/(Pixel*Frame) : 0.064
Stream size : 5.07 GiB (97%)
Codec configuration box : ROH

Audio
ID : 2
Codec ID : mp4a-40-2
Duration : 3 h 2 min
Bit rate mode : ROH
Bit rate : 108 kb/s
Channel(s) : 2 channels
Channel layout : L R
Sampling rate : 48.0 kHz
Frame rate : 46.875 FPS (1024 SPF)
Compression mode : ROH
Stream size : 140 MiB (3%)
Default : Yes
Alternate group : 1

 

 

Watch online

 

 

Server 1

 

 

 

 

watch now

 

 

 

 

Server 2

 

 

 

watch now

 

 

 

ROH Bound by Honor 2020 1080p

 

 

Uploaded By Site DX-TV.com

 

 

DDL.to

https://shrt10.com/xOUciy
https://shrt10.com/OHD0olnR
https://shrt10.com/xu7GyyV7

 

rockfile.co

https://shrt10.com/Qo1pv
https://shrt10.com/zPKGiteoH
https://shrt10.com/Nl5JmBH

 

 

Download with premium account LinksĀ 

 

 

Keep2Share

 

 

alfafile.net

 

 

nitroflare.com

 

 

rapidgator.net

 

 

uploadgig.com

 

 

 

dx-tv.com

 

You May Also Like