ROH 2018 05 26 Honor United London 720p WEB HEEL Watch /Download

ROH 2018 05 26 Honor United London 720p WEB HEEL Watch /Download

 

 

 

 

 

 

dx-tv

 

 

 

 

 

 

 

Complete name : ROH.2018.05.26.Honor.United.London.720p.WEB.h264-HEEL.mp4
Format : MPEG-4
Format profile : Base Media
Codec ID : isom
File size : 3.48 GiB
Duration : 3h 15mn
Overall bit rate : 2 541 Kbps

Video
ID : 1
Format : AVC
Format/Info : Advanced Video Codec
Format profile : [email protected]
Codec ID : avc1
Codec ID/Info : Advanced Video Coding
Duration : 3h 15mn
Bit rate mode : Variable
Bit rate : 2 403 Kbps
Width : 1 280 pixels
Height : 720 pixels
Display aspect ratio : 16:9
Frame rate mode : Variable
Frame rate : 30.000 fps
Minimum frame rate : 24.590 fps
Maximum frame rate : 30.303 fps
Color space : YUV
Chroma subsampling : 4:2:0
Bit depth : 8 bits
Scan type : Progressive
Bits/(Pixel*Frame) : 0.087
Stream size : 3.29 GiB (95%)

Audio
ID : 2
Format : AAC
Format/Info : Advanced Audio Codec
Format profile : LC
Codec ID : 40
Duration : 3h 15mn
Bit rate mode : Constant
Bit rate : 127 Kbps
Channel(s) : 2 channels
Channel positions : Front: L R
Sampling rate : 48.0 KHz
Compression mode : Lossy
Stream size : 180 MiB (5%)

 

 

 

 

 

 

 

ROH 2018 05 26 Honor United London 720p WEB HEEL Watch /Download

 

 

 

 

Watch online

 

 

Waiting finish converting video

 

 

Server 1

 

 

 

 

 

 

 

 

 

 

 

 

 

 

 

 

 

 

 

 

Server 2

 

 

 

 

 

 

 

 

 


 

 

 

 

 

 

 

 

 

 

 

 

Uploaded By Site DX-TV.com

 

 

 

open rar file to see this password

 

 

 

 

The password is : DX-TV.com

 

 

 

 

 

Uploaded.net + rapidgator.net

 

 

 

 

 

 

 

 
http://shrt10.com/jJcFtLxr

 
http://shrt10.com/aVTJ
 

 

 

 

 

 

ROH 2018 05 26 Honor United London 720p WEB HEEL Watch /Download

 70 total views,  2 views today

%d bloggers like this: