Road to Wrestling Dontaku 2021 Day 3 English 13 April

Road to Wrestling Dontaku 2021 Day 3 13 April 2021 NJPW English DX-TV

Road to Wrestling Dontaku

 NJPW Day 3 Road to Wrestling Dontaku

 

 

 

Download Links with High Speed


Dopapk

 

 

Show Links

 

http://shrt10.com/V0AfkTS

 

[collapse]

 

 

Nitroflare

 

 

Show Links

 

http://shrt10.com/g0PCw

 

[collapse]

 

 

Rapidgator

 

 

Show Links

 

http://shrt10.com/yzEakmA

 

[collapse]

 

 

Uploaded

 

 

Show Links

 

http://shrt10.com/kPsxbptk1

 

[collapse]

 

 

Watch online

 

Server 1

 

 

 

 

Road to Wrestling Dontaku

 

 

 

 

Server-2

 

 

 

 

watch now

 

 

 

|Server-3

 

 

 

 

watch now

 

 

Uploaded By Site DX-TV.com

 

 

Show Info This Show

 

 

Complete name : NJPW.2021.04.13.Road.to.Wrestling.Dontaku.2021.Day.3.ENGLISH.720p.WEB.h264-LATE.mkv
Format : Matroska
Format version : Version 4
File size : 1.81 GiB
Duration : 2 h 7 min
Overall bit rate : 2 032 kb/s

Road to Wrestling Dontaku

Video
ID : 1
Format : AVC
Codec ID : V_MPEG4/ISO/AVC
Duration : 2 h 7 min
Bit rate : 1 904 kb/s
Width : 1 280 pixels
Height : 720 pixels
Display aspect ratio : 16:9
Frame rate mode : Constant
Frame rate : 30.000 FPS
Color space : YUV
Chroma subsampling : 4:2:0
Bit depth : 8 bits
Scan type : Progressive
Bits/(Pixel*Frame) : 0.069
Stream size : 1.69 GiB (94%)
Forced : No

Road to Wrestling Dontaku

Audio
ID : 2
Format : AAC LC
Format/Info : Advanced Audio
Codec ID : A_AAC-2
Duration : 2 h 7 min
Bit rate : 126 kb/s
Channel(s) : 2 channels
Channel layout : L R
Sampling rate : 44.1 kHz
Frame rate : 43.066 FPS (1024 SPF)
Compression mode : Lossy
Delay relative to video : -23 ms
Stream size : 114 MiB (6%)
Language : English
Default : Yes
Forced : No

Road to Wrestling Dontaku

Audio
ID : 2
Format : AAC LC
Format/Info : Advanced Audio
Codec ID : A_AAC-2
Duration : 2 h 7 min
Bit rate : 126 kb/s
Channel(s) : 2 channels
Channel layout : L R
Sampling rate : 44.1 kHz
Frame rate : 43.066 FPS (1024 SPF)
Compression mode : Lossy
Delay relative to video : -23 ms
Stream size : 114 MiB (6%)
Language : English
Default : Yes
Forced : No

Audio
ID : 2
Format : AAC LC
Format/Info : Advanced Audio
Codec ID : A_AAC-2
Duration : 2 h 7 min
Bit rate : 126 kb/s
Channel(s) : 2 channels
Channel layout : L R
Sampling rate : 44.1 kHz
Frame rate : 43.066 FPS (1024 SPF)
Compression mode : Lossy
Delay relative to video : -23 ms
Stream size : 114 MiB (6%)
Language : English
Default : Yes
Forced : No

Audio
ID : 2
Format : AAC LC
Format/Info : Advanced Audio
Codec ID : A_AAC-2
Duration : 2 h 7 min
Bit rate : 126 kb/s
Channel(s) : 2 channels
Channel layout : L R
Sampling rate : 44.1 kHz
Frame rate : 43.066 FPS (1024 SPF)
Compression mode : Lossy
Delay relative to video : -23 ms
Stream size : 114 MiB (6%)
Language : English
Default : Yes
Forced : No

Road to Wrestling Dontaku

Audio
ID : 2
Format : AAC LC
Format/Info : Advanced Audio
Codec ID : A_AAC-2
Duration : 2 h 7 min
Bit rate : 126 kb/s
Channel(s) : 2 channels
Channel layout : L R
Sampling rate : 44.1 kHz
Frame rate : 43.066 FPS (1024 SPF)
Compression mode : Lossy
Delay relative to video : -23 ms
Stream size : 114 MiB (6%)
Language : English
Default : Yes
Forced : No

[collapse]

 

 

https://dx-tv.com/