Road to The New Beginning NJPW 24-01-2021

Road to The New Beginning NJPW 24-01-2021 DX-TV

Road to The New Beginning

 Road to The New Beginning

 

Download Links with premium High Speed   

 

 

dropapk.to

http://shrt10.com/QgSN1iiKt
http://shrt10.com/eJ1Rh

 

 

nitroflare.com

http://shrt10.com/nvn3Io
http://shrt10.com/GbdchyD

 

 

rapidgator.net

http://shrt10.com/ZRPklC
http://shrt10.com/PzyjbF

 

 

uploaded.net

http://shrt10.com/GzWjzI
http://shrt10.com/A2YmXaC

 

 

uploadgig.com

http://shrt10.com/mh7dONE
http://shrt10.com/2AVb1VkT

 

Watch Road to The New Beginning online

 

Server 1

 

 

 

 

Road to The New Beginning

 

watch now

 

 

 

 

Server-2

 

 

 

 

watch now

 

watch now

 

 

Uploaded By Site DX-TV.com

 

 

Complete name : NJPW.2021.01.24.Road.to.the.New.Beginning.Day.6.ENGLISH.WEB.h264-LATE.mkv
Format : Matroska
Format version : Version 4
File size : 1.65 GiB
Duration : 2 h 3 min
Overall bit rate : 1 922 kb/s

Road to The New Beginning

Video
ID : 1
Format : AVC
Format/Info : Advanced Video
Duration : 2 h 3 min
Bit rate : 1 820 kb/s
Width : 960 pixels
Height : 540 pixels
Display aspect ratio : 16:9
Frame rate mode : Constant
Frame rate : 30.000 FPS
Color space : YUV
Chroma subsampling : 4:2:0
Bit depth : 8 bits
Scan type : Progressive
Bits/(Pixel*Frame) : 0.117
Stream size : 1.56 GiB (95%)
Default : Yes
Forced : No
Color range : Limited
Color primaries : BT.601 PAL
Transfer characteristics : BT.601
Matrix coefficients : BT.470 System B/G

Road to The New  

Audio
ID : 2
Format : AAC LC
Format/Info : Advanced Audio
Codec ID : A_AAC-2
Duration : 2 h 3 min
Bit rate : 99.5 kb/s
Channel(s) : 2 channels
Channel layout : L R
Sampling rate : 44.1 kHz
Frame rate : 43.066 FPS
Compression mode : Lossy
Stream size : 87.6 MiB (5%)
Language : English
Default : Yes
Forced : No

Complete name : NJPW.2021.01.24.Road.to.the.New.Beginning.Day.6.JAPANESE.WEB.h264-LATE.mkv
Format : Matroska
Format version : Version 4
File size : 1.66 GiB
Duration : 2 h 3 min
Overall bit rate : 1 932 kb/s

Road to The New Beginning

Video
ID : 1
Format : AVC
Codec ID : V_MPEG4/ISO/AVC
Duration : 2 h 3 min
Bit rate : 1 830 kb/s
Width : 960 pixels
Height : 540 pixels
Display aspect ratio : 16:9
Frame rate mode : Constant
Frame rate : 30.000 FPS
Color space : YUV
Chroma subsampling : 4:2:0
Bit depth : 8 bits
Scan type : Progressive
Bits/(Pixel*Frame) : 0.118
Stream size : 1.57 GiB (95%)
Default : Yes
Forced : No
Color range : Limited
Color primaries : BT.601 PAL
Transfer characteristics : BT.601
Matrix coefficients : BT.470 System B/G

Road to The New  

Audio
ID : 2
Format : AAC LC
Format/Info : Advanced Audio
Codec ID : A_AAC-2
Duration : 2 h 3 min
Bit rate : 99.3 kb/s
Channel(s) : 2 channels
Channel layout : L R
Sampling rate : 44.1 kHz
Frame rate : 43.066 FPS (1024 SPF)
Compression mode : Lossy
Stream size : 87.4 MiB (5%)
Language : English
Default : Yes
Forced : No

Road to The  

 

https://dx-tv.com/

You May Also Like

Leave a Reply

Your email address will not be published. Required fields are marked *

This site uses Akismet to reduce spam. Learn how your comment data is processed.