Rhodes To The Top S01E03 Full Show Replay

Rhodes To The Top S01E03 1080p Full Show Replay DX-TV

Rhodes To The Top S01E03

 Rhodes To The Top S01E03

 

 

 

Download Links with premium High Speed
 


Dopapk

 

 

Show Links

 

 

 

 

Nitroflare

 

 

Show Links

 

 

Rapidgator

 

 

Show Links

 

 

 

Uploaded
 

 

Show Links

 

 

 

 

 

Watch Rhodes To The Top S01E03 online

 

Server 1

 

 

 

 

Rhodes To The Top S01E03

 

 

 

 

Server-2

 

 

 

 

watch now

 

 

 

|Server-3

 

 

 

 

watch now

 

 

Uploaded By Site DX-TV.com

 

 

Open Info Show

 

 

Complete name : Rhodes.To.The.Top.S01E03.TNT.1080p.WEB.h264-HEEL.mkv
Format : Matroska
Format version : Version 4
File size : 867 MiB
Duration : 22 min 59 s
Overall bit rate mode : Variable
Overall bit rate : 5 274 kb/s

Rhodes To The Top S01E03

Video
ID : 1
Format : AVC
Codec ID : V_MPEG4/ISO/AVC
Duration : 22 min 59 s
Bit rate mode : Variable
Bit rate : 4 785 kb/s
Nominal bit rate : 3 307 kb/s
Maximum bit rate : 8 000 kb/s
Width : 1 920 pixels
Height : 1 080 pixels
Display aspect ratio : 16:9
Frame rate mode : Constant
Frame rate : 59.940 (60000/1001) FPS
Standard : Component
Color space : YUV
Chroma subsampling : 4:2:0
Bit depth : 8 bits
Scan type : Progressive
Bits/(Pixel*Frame) : 0.038
Stream size : 787 MiB (91%)
Forced : No
Color range : Limited
Color primaries : BT.709
Transfer characteristics : BT.709
Matrix coefficients : BT.709

Rhodes To The Top S01E03

Audio
ID : 2
Format : AC-3
Format/Info : Audio Coding 3
Commercial name : Dolby Digital
Codec ID : A_AC3
Duration : 22 min 59 s
Bit rate mode : Constant
Bit rate : 384 kb/s
Channel(s) : 6 channels
Channel layout : L R C LFE Ls Rs
Sampling rate : 48.0 kHz
Frame rate : 31.250 FPS (1536 SPF)
Bit depth : 32 bits
Compression mode : Lossy
Stream size : 63.1 MiB (7%)
Language : English
Service kind : Complete Main
Default : Yes

Rhodes To The Top S01E03

Video
ID : 1
Format : AVC
Codec ID : V_MPEG4/ISO/AVC
Duration : 22 min 59 s
Bit rate mode : Variable
Bit rate : 4 785 kb/s
Nominal bit rate : 3 307 kb/s
Maximum bit rate : 8 000 kb/s
Width : 1 920 pixels
Height : 1 080 pixels
Display aspect ratio : 16:9
Frame rate mode : Constant
Frame rate : 59.940 (60000/1001) FPS
Standard : Component
Color space : YUV
Chroma subsampling : 4:2:0
Bit depth : 8 bits
Scan type : Progressive
Bits/(Pixel*Frame) : 0.038
Stream size : 787 MiB (91%)
Forced : No
Color range : Limited
Color primaries : BT.709
Transfer characteristics : BT.709
Matrix coefficients : BT.709

Rhodes To The Top S01E03

Audio
ID : 2
Format : AC-3
Format/Info : Audio Coding 3
Commercial name : Dolby Digital
Codec ID : A_AC3
Duration : 22 min 59 s
Bit rate mode : Constant
Bit rate : 384 kb/s
Channel(s) : 6 channels
Channel layout : L R C LFE Ls Rs
Sampling rate : 48.0 kHz
Frame rate : 31.250 FPS (1536 SPF)
Bit depth : 32 bits
Compression mode : Lossy
Stream size : 63.1 MiB (7%)
Language : English
Service kind : Complete Main

https://dx-tv.com/

 

 

 

 

 

Leave a Reply

Your email address will not be published. Required fields are marked *

This site uses Akismet to reduce spam. Learn how your comment data is processed.