RevPro Epic Encounters 2 2020 09 23 Free Online

Watch RevPro Epic Encounters 2 2020 09 23 Free Online 1080p DX-TV

 

RevPro Epic Encounters 2

 

 RevPro Epic Encounters 2
 


 

 

 Epic Encounters 2 2020 09 23 Free Online

 

JJ Gale vs. Mark Haskins

Commentary is still “pretend-live”, as Stephanie Chase is waiting by at ringside. Gale is part of Rev Pro’s Contender’s division,

while Mark Haskins is accompanied to ringside by Lord Gideon Grey.

Haskins starts by taking Gale to the mat in an armbar, rolling him over for a quick two-count before Gale retaliated with a waistlock takedown.

He can’t keep Haskins down though, as JJ’s forced to avoid a kid to the arm before Haskins went back in with a headlock takedown.

Gale counters out with headscissors, but Haskins jack-knifes his way into a cover as the early going seemed a little terse.

RevPro Epic Encounters 2

Going back to the arm, Haskins ends up in the ropes as the pair needed to be separated by the referee.

and Haskins fakes out a kick before he took out JJ’s legs.

following up with some chops in the corner before he wrenched away on Gale’s leg in the corner.

Somehow Gale comes back, leapfrogging over Haskins and into a dropkick for a one-count.

before Haskins tripped him down and worked over the leg some more, throwing it against the side of the ring.

 

RevPro Epic Encounters 2

Complete name : RevPro Epic Encounters 2 2020 09 23 1080p WEB H264 DX-TV.com.mp4
Format : MPEG-4
Format profile : Base Media
Codec ID : isom
File size : 3.44 GiB
Duration : 1 h 56 min
Overall bit rate mode : Variable
Overall bit rate : 4 236 kb/s
Movie name : rendition.m3u8
Writing application : Lavf57.48.100
Comment : DX-tv.com

RevPro Epic Encounters 2

Video
ID : 1
Format : AVC
Duration : 1 h 56 min
Bit rate : 4 038 kb/s
Width : 1 920 pixels
Height : 1 080 pixels
Display aspect ratio : 16:9
Frame rate mode : Variable
Frame rate : 25.000 FPS
Color space : YUV
Chroma subsampling : 4:2:0
Bit depth : 8 bits
Scan type : Progressive
Bits/(Pixel*Frame) : 0.078
Stream size : 3.27 GiB (95%)
Color range : Limited
Color primaries : BT.709
Transfer characteristics : BT.709
Matrix coefficients : BT.709
Codec configuration box : avcC

RevPro  Encounters 2

Audio
ID : 2
Format : AAC LC
Format/Info : Advanced Audio
Codec ID : mp4a-40-2
Duration : 1 h 56 min
Bit rate mode : Variable
Bit rate : 192 kb/s
Maximum bit rate : 197 kb/s
Channel(s) : 2 channels
Channel layout : L R
Sampling rate : 48.0 kHz
Frame rate : 46.875 FPS
Compression mode : Lossy
Stream size : 159 MiB (5%)
Default : Yes
Alternate group : 1

 

 Epic Encounters 2 2020 09 23 Free Online

 

Watch online

 

 

Server 1

 

 

 

 

watch now

 

 

 

 

Server-2

 

 

 

watch now

 

 

 

 

Server-3

 

 

 

RevPro Epic Encounters 2

 

 

 

 

Uploaded By Site DX-TV.com

 

 

 

 

Download Free Links with normal and high Speed [ more 14 hosts ]  

 

 

 

http://shrt10.com/X07siZs
http://shrt10.com/NxSFwe
http://shrt10.com/q9FfJv
http://shrt10.com/n0UmD1TG
http://shrt10.com/Li8PDFm0M
http://shrt10.com/M86B4dpVj
http://shrt10.com/FNtDDh
http://shrt10.com/0tXu35h

 

 

 

 

Download Links with premium High Speed   

 

 

 

 

 

nitroflare.com

 

 

 

rapidgator.net

 

 

 

uploaded.net

 

 

 

uploadgig.com

 

 

 

 

 

dx-tv.com

 

urlfree.net

Leave a Reply

Your email address will not be published. Required fields are marked *

This site uses Akismet to reduce spam. Learn how your comment data is processed.