Quintet Fight Night 6 720p Full Show Online Replay

Quintet Fight Night 6 720p Full Show Online Replay DX-TV

Quintet Fight Night 6

 Quintet Fight Night 6

 

 

 

Download Links with High Speed


 

Dopapk

 

 

Show Links

 

http://shrt10.com/n11xYZg
http://shrt10.com/gVbvyJGLx

 

[collapse]

 

 

Nitroflare

 

 

Show Links

 

http://shrt10.com/I4Vc8cXP
http://shrt10.com/pzFmsWot

 

[collapse]

 

 

Rapidgator

 

 

Show Links

 

http://shrt10.com/DsXYQyzE
http://shrt10.com/tLDX01HyB

 

[collapse]

 

 

Uploaded

 

 

Show Links

 

http://shrt10.com/aaa3LRyOl
http://shrt10.com/Eh41B

 

[collapse]

 

 

Watch online

 

Server 1

 

 

 

 

watch now

 

 

 

 

Server-2

 

 

 

 

Quintet Fight Night 6

 

 

 

|Server-3

 

 

 

 

watch now

 

 

Uploaded By Site DX-TV.com

 

 

Show Info This Show

 

 

Complete name : Quintet.Fight.Night.6.WEB-DL.H264-SHREDDiE.mp4
Format : MPEG-4
Format profile : Base Media
Codec ID : isom
File size : 1.62 GiB
Duration : 3 h 18 min
Overall bit rate : 1 167 kb/s

Quintet Fight Night 

Video
ID : 1
Format : AVC
Duration : 3 h 18 min
Bit rate : 972 kb/s
Width : 896 pixels
Height : 504 pixels
Display aspect ratio : 16:9
Frame rate mode : Constant
Frame rate : 30.000 FPS
Color space : YUV
Chroma subsampling : 4:2:0
Bit depth : 8 bits
Scan type : Progressive
Bits/(Pixel*Frame) : 0.072
Stream size : 1.34 GiB (83%)

Audio
ID : 2
Format : AAC LC
Codec ID : mp4a-40-2
Duration : 3 h 18 min
Source duration : 3 h 18 min
Bit rate mode : Constant
Bit rate : 192 kb/s
Channel(s) : 2 channels
Channel layout : L R
Sampling rate : 48.0 kHz
Frame rate : 46.875 FPS
Compression mode : Lossy
Stream size : 273 MiB
Alternate group : 1

Complete name : Quintet.Fight.Night.6.720p.FP.WEB-DL.H264-SHREDDiE.mp4
Format : MPEG-4
Format profile : Base Media
Codec ID : isom
File size : 4.93 GiB
Duration : 3 h 18 min
Overall bit rate : 3 551 kb/s

Quintet Fight Night 

Video
ID : 1
Format : AVC
Duration : 3 h 18 min
Bit rate : 3 372 kb/s
Width : 1 280 pixels
Height : 720 pixels
Display aspect ratio : 16:9
Frame rate mode : Constant
Frame rate : 30.000 FPS
Color space : YUV
Chroma subsampling : 4:2:0
Bit depth : 8 bits
Scan type : Progressive
Bits/(Pixel*Frame) : 0.122
Stream size : 4.65 GiB

Quintet Fight Night 

Audio
ID : 2
Format : AAC LC
Codec ID : mp4a-40-2
Duration : 3 h 18 min
Source duration : 3 h 18 min
Bit rate mode : Constant
Bit rate : 192 kb/s
Channel(s) : 2 channels
Channel layout : L R
Sampling rate : 48.0 kHz
Frame rate : 46.875 FPS
Compression mode : Lossy
Stream size : 273 MiB
Default : Yes
Alternate group : 1

 

 

[collapse]

 

 

https://dx-tv.com/

You May Also Like

1 Comment

  1. @snaw90 Thanks for Jiu JItsu grappling , please have DAZN Boxing Estrada vs. Chocolatito 2 main card replay in SD dropapk and Mystream links , Thanks .

Comments are closed.