Progress Wrestling 2018 08 27 Chapter 75 720p WEB WD

Progress Wrestling 2018 08 27 Chapter 75 720p WEB WD

 

 

 

 


 

 

dx-tv.com

 

 

 

 

 

 

 

Complete name : PROGRESS.Wrestling.2018.08.27.Chapter.75.720p.WEB.h264-WD.mp4
Format : MPEG-4
Format profile : Base Media
File size : 3.69 GiB
Duration : 3 h 18 min
Overall bit rate : 2 657 kb/s
Writing application : Lavf57.73.100

Video
ID : 1
Format : AVC
Format/Info : Advanced Video Codec
Codec ID : avc1
Codec ID/Info : Advanced Video Coding
Duration : 3 h 18 min
Bit rate : 2 586 kb/s
Width : 1 280 pixels
Height : 720 pixels
Display aspect ratio : 16:9
Frame rate mode : Constant
Frame rate : 29.970
Color space : YUV
Chroma subsampling : 4:2:0
Bit depth : 8 bits
Scan type : Progressive
Bits/(Pixel*Frame) : 0.094
Stream size : 3.59 GiB (97%)
Color range : Limited
Color primaries : BT.709
Transfer characteristics : BT.709
Matrix coefficients : BT.709

Audio
ID : 2
Format : AAC
Format/Info : Advanced Audio Codec
Format profile : LC
Codec ID : mp4a-40-2
Duration : 3 h 18 min
Bit rate mode : Constant
Bit rate : 64.4 kb/s
Channel(s) : 2 channels
Channel positions : Front: L R
Sampling rate : 44.1 kHz
Frame rate : 43.066 FPS
Compression mode : Lossy
Stream size : 91.5 MiB (2%)

 

 

 

 

Progress Wrestling 2018 08 27 Chapter 75 720p WEB WD

 

 

 

 

Watch online

 

 

Waiting finish converting video

 

 

Server 1

 

 

 

 

 

 

 

 

 

 

 

 

 

 

 

 

Server 2

 

 

 

 

 

 


 

 

 

 

 

 

Uploaded By Site DX-TV.com

 

 

 

open rar file to see this password

 

 

 

 

The password : DX-TV.com

 

 

 

 

 

 

Uploaded.net + rapidgator.net

 

 

 

 

 

http://shrt10.com/460c

 

 

 

 

http://shrt10.com/Z1fho

 

 

 

 

Progress Wrestling 2018 08 27 Chapter 75 720p WEB WD

6 comments

      1. Hi Snaw90, thanks for all the uploads! any chance of fixing old Evolve links? from 72 backwards it seems nothing is working. At least some recent ones. Thanks a lot.

          1. More if possible. The most you are willing to fix starting from 72 going backwards. Maybe till 58 at least?

Comments are closed.