Progress Wrestling 2018 08 27 Chapter 75 1080p WEB WD

Progress Wrestling 2018 08 27 Chapter 75 1080p WEB WD

 

 

 

 


 

 

 

 

dx-tv.com

 

 

 

 

 

 

 

Complete name : PROGRESS.Wrestling.2018.08.27.Chapter.75.1080p.WEB.h264-WD.mp4
Format : MPEG-4
Format profile : Base Media
File size : 5.35 GiB
Duration : 3 h 18 min
Overall bit rate : 3 852 kb/s
Writing application : Lavf57.73.100

Video
ID : 1
Format : AVC
Format/Info : Advanced Video Codec
Codec ID/Info : Advanced Video Coding
Duration : 3 h 18 min
Bit rate : 3 779 kb/s
Width : 1 920 pixels
Height : 1 080 pixels
Display aspect ratio : 16:9
Frame rate mode : Constant
Frame rate : 29.970
Color space : YUV
Chroma subsampling : 4:2:0
Bit depth : 8 bits
Scan type : Progressive
Bits/(Pixel*Frame) : 0.061
Stream size : 5.25 GiB (98%)
Color range : Limited
Color primaries : BT.709
Transfer characteristics : BT.709
Matrix coefficients : BT.709

Audio
ID : 2
Format : AAC
Format/Info : Advanced Audio Codec
Format profile : LC
Codec ID : mp4a-40-2
Duration : 3 h 18 min
Bit rate mode : Constant
Bit rate : 64.4 kb/s
Channel(s) : 2 channels
Channel positions : Front: L R
Sampling rate : 44.1 kHz
Frame rate : 43.066 FPS (1024 SPF)
Compression mode : Lossy
Stream size : 91.5 MiB (2%)
Default : Yes
Alternate group : 1

 

 

 

 

 

 

 

Progress Wrestling 2018 08 27 Chapter 75 1080p WEB WD

 

 

 

 

Watch online

 

 

Waiting finish converting video

 

 

Server 1

 

 

 

 

 

 

 

 

 

 

 

 

 

 

 

 

Server 2

 

 

 

 

 

 


 

 

 

 

 

 

 

 

Uploaded By Site DX-TV.com

 

 

 

open rar file to see this password

 

 

 

 

The password : DX-TV.com

 

 

 

 

 

 

Uploaded.net + rapidgator.net

 

 

 

 

http://shrt10.com/ck6n4E
 

 

 

 

http://shrt10.com/6PSQJ9L
 

 

 

 

http://shrt10.com/8e2o1SP

 

 

 

 
http://shrt10.com/uwCL0
 

 

 

 

 

Progress Wrestling 2018 08 27 Chapter 75 1080p WEB WD