PROGRESS Wrestling 2018 05 27 Chapter 70 MULTi WEB iNDYHEEL Watch / Download

PROGRESS Wrestling 2018 05 27 Chapter 70 MULTi WEB iNDYHEEL Watch / Download

 

 

 

 


 

dx-tv.com

 

 

 

 

 

 

Complete name : PROGRESS.Wrestling.2018.05.27.Chapter.70.MULTi.WEB.h264-iNDYHEEL.mp4
Format : MPEG-4
Format profile : Base Media
Codec ID : isom
File size : 2.10 GiB
Duration : 2h 59mn
Overall bit rate : 1 679 Kbps
Encoded date : UTC 2018-06-01 02:54:31
Tagged date : UTC 2018-06-01 02:54:31

Video
ID : 1
Format : AVC
Format/Info : Advanced Video Codec
Codec ID : avc1
Codec ID/Info : Advanced Video Coding
Duration : 2h 59mn
Bit rate mode : Variable
Bit rate : 1 495 Kbps
Maximum bit rate : 2 667 Kbps
Width : 854 pixels
Height : 480 pixels
Display aspect ratio : 16:9
Frame rate mode : Constant
Frame rate : 29.970 fps
Color space : YUV
Chroma subsampling : 4:2:0
Bit depth : 8 bits
Scan type : Progressive
Bits/(Pixel*Frame) : 0.122
Stream size : 1.87 GiB (89%)

Audio #1
ID : 2
Format : AAC
Format/Info : Advanced Audio Codec
Format profile : LC
Codec ID : 40
Duration : 2h 59mn
Bit rate mode : Variable
Bit rate : 88.6 Kbps
Maximum bit rate : 106 Kbps
Channel(s) : 2 channels
Channel positions : Front: L R
Sampling rate : 44.1 KHz
Compression mode : Lossy
Stream size : 114 MiB (5%)
Language : English
Encoded date : UTC 2018-06-01 02:54:42
Tagged date : UTC 2018-06-01 02:55:24

Audio #2
ID : 3
Format : AAC
Format/Info : Advanced Audio Codec
Format profile : LC
Codec ID : 40
Duration : 2h 59mn
Bit rate mode : Variable
Bit rate : 91.5 Kbps
Maximum bit rate : 107 Kbps
Channel(s) : 2 channels
Channel positions : Front: L R
Sampling rate : 44.1 KHz
Compression mode : Lossy
Stream size : 117 MiB (5%)
Title : No Commentary
Language : English
Encoded date : UTC 2018-06-01 02:55:19
Tagged date : UTC 2018-06-01 02:55:24

 

 

 

 

 

 

PROGRESS Wrestling 2018 05 27 Chapter 70 MULTi WEB iNDYHEEL Watch / Download

 

 

 

 

Watch online

 

 

Waiting finish converting video

 

 

Server 1

 

 

 

 

 

 

 

 

 

 

 

 

 

 

 

 

 

Server 2

 

 

 

 

 

 

 

 

 

 

 

 

 

 

 

Uploaded By Site DX-TV.com

 

 

 

open rar file to see this password

 

 

 

 

The password is : DX-TV.com

 

 

 

 

 

Uploaded.net + rapidgator.net

 

 

 

http://shrt10.com/9ePL83t6

http://shrt10.com/3m0Ofj
 

 

 

 

 

 

 

 

PROGRESS Wrestling 2018 05 27 Chapter 70 MULTi WEB iNDYHEEL Watch / Download