PROGRESS Wrestling 2018 05 20 Chapter 69 1080p WEB iNDYHEEL Download

PROGRESS Wrestling 2018 05 20 Chapter 69 1080p WEB iNDYHEEL Download

 

 

 


 

 

dx-tv.com

 

 

 

 

 

Complete name : PROGRESS.Wrestling.2018.05.20.Chapter.69.1080p.WEB.h264-iNDYHEEL.mp4
Format : MPEG-4
Format profile : Base Media
Codec ID : isom
File size : 5.14 GiB
Duration : 3h 0mn
Overall bit rate : 4 071 Kbps

Video
ID : 1
Format : AVC
Format/Info : Advanced Video Codec
Codec ID : avc1
Codec ID/Info : Advanced Video Coding
Duration : 3h 0mn
Bit rate mode : Variable
Bit rate : 3 974 Kbps
Width : 1 920 pixels
Height : 1 080 pixels
Display aspect ratio : 16:9
Frame rate mode : Constant
Frame rate : 29.970 fps
Color space : YUV
Chroma subsampling : 4:2:0
Bit depth : 8 bits
Scan type : Progressive
Bits/(Pixel*Frame) : 0.064
Stream size : 5.02 GiB (98%)

Audio
ID : 2
Format : AAC
Format/Info : Advanced Audio Codec
Format profile : LC
Codec ID : 40
Duration : 3h 0mn
Bit rate mode : Variable
Bit rate : 88.1 Kbps
Maximum bit rate : 104 Kbps
Channel(s) : 2 channels
Channel positions : Front: L R
Sampling rate : 44.1 KHz
Compression mode : Lossy
Stream size : 114 MiB (2%)

 

 

 

 

 

 

 

 

PROGRESS Wrestling 2018 05 20 Chapter 69 1080p WEB iNDYHEEL Download

 

 

 

 

Uploaded By Site DX-TV.com

 

 

 

open rar file to see this password

 

 

 

 

The password is : DX-TV.com

 

 

 

 

 

Uploaded.net + rapidgator.net

 

 

 

 

 

http://shrt10.com/EqM8x
 

http://shrt10.com/4dONKMbH
 

http://shrt10.com/EDiv2gDU
 

http://shrt10.com/53lu
 

 

 

 

 

 

PROGRESS Wrestling 2018 05 20 Chapter 69 1080p WEB iNDYHEEL Download