Pro Wrestling NOAH 6/26/2018 Korakuen Hall Watch / Download

Pro Wrestling NOAH 6/26/2018 Korakuen Hall Watch / Download

 

 

 

 


 

 

 

dx-tv.com

 

 

 

 

 

 

Complete name : (2018.06.26) NOAH.mp4
Format : MPEG-4
Format profile : Base Media / Version 2
Codec ID : mp42
File size : 2.46 GiB
Duration : 3h 9mn
Overall bit rate : 1 862 Kbps
Encoded date : UTC 2018-06-29 18:54:22
Tagged date : UTC 2018-06-29 20:44:16

Video
ID : 1
Format : AVC
Format/Info : Advanced Video Codec
Codec ID : avc1
Codec ID/Info : Advanced Video Coding
Duration : 3h 9mn
Bit rate mode : Variable
Bit rate : 1 731 Kbps
Maximum bit rate : 8 762 Kbps
Width : 1 024 pixels
Height : 576 pixels
Display aspect ratio : 16:9
Frame rate mode : Constant
Frame rate : 30.000 fps
Color space : YUV
Chroma subsampling : 4:2:0
Bit depth : 8 bits
Scan type : Progressive
Bits/(Pixel*Frame) : 0.098
Stream size : 2.29 GiB (93%)

Audio
ID : 2
Format : AAC
Format/Info : Advanced Audio Codec
Format profile : LC
Codec ID : 40
Duration : 3h 9mn
Bit rate mode : Variable
Bit rate : 128 Kbps
Maximum bit rate : 138 Kbps
Channel(s) : 2 channels
Channel positions : Front: L R
Sampling rate : 44.1 KHz
Compression mode : Lossy
Stream size : 173 MiB (7%)
Encoded date : UTC 2018-06-29 20:45:54
Tagged date : UTC 2018-06-29 20:47:07

 

 

 

 

 

 

 

 

 

Pro Wrestling NOAH 6/26/2018 Korakuen Hall Watch / Download

 

 

 

 

Watch online

 

 

Waiting finish converting video

 

 

Server 1

 

 

 

 

 

 

 

 

 

 

 

 

 

 

 

 

Server 2

 

 

 

 

 

 

 


 

 

 

 

 

 

Uploaded By Site DX-TV.com

 

 

 

open rar file to see this password

 

 

 

 

The password : DX-TV.com

 

 

 

 

Uploaded.net + rapidgator.net

 

 

 

 
http://shrt10.com/AMNEitM

 
http://shrt10.com/EX5LVhbA
 

 

 

 

 

 

 

 

 

 

Pro Wrestling NOAH 6/26/2018 Korakuen Hall Watch / Download