Polaris 13 UK Grand Prix 720p Full Show Online

Watch Polaris 13 UK Grand Prix 720p DX-TV

 

Polaris 13 Online

 Polaris 13 Online

 

Polaris 13 UK Grand Prix 720p Full Show Online

 

 

 

Complete name : Polaris.13.UK.Grand.Prix.720p.WEB-DL.mp4
Format : MPEG-4
Format profile : Base Media
Codec ID : isom
File size : 1.70 GiB
Duration : 2 h 29 min
Polaris 13 Online mode : Variable
Overall bit rate : 1 633 kb/s
Writing application : Lavf58.12.100

Polaris 13 UK Grand Prix 720p Full Show Online

Video
ID : 1
Format : AVC
Format/Info : Advanced Video Codec
profile : [email protected]
Format settings : CABAC
settings, CABAC : Yes
Polaris 13 Online, : 4 frames
Codec ID : avc1
Codec ID/Info : Advanced Video Coding
Duration : 2 h 29 min
Bit rate : 1 512 kb/s
Width : 1 280 pixels
Height : 720 pixels
Display aspect ratio : 16:9
Frame rate mode : Constant
Frame rate : 30.000 FPS
Color space : YUV
Chroma subsampling : 4:2:0
Bit depth : 8 bits
Scan type : Progressive
Bits/(Polaris 13 Online) : 0.055
Stream size : 1.56 GiB (92%)

Audio
ID : 2
Format : AAC LC
Format/Info : Polaris 13 Online Complexity
Codec ID : mp4a-40-2
Duration : 2 h 29 min
Bit rate mode : Variable
Bit rate : 128 kb/s
Maximum bit rate : 133 kb/s
Channel(s) : 2 channels
Channel layout : L R
Sampling rate : 48.0 kHz
Frame rate : 46.875 FPS (1024 SPF)
Polaris 13 Online mode : Lossy
Stream size : 137 MiB (8%)
Default : Yes
Alternate group : 1

 13 UK Grand Prix 720p Full Show Online

 

The Polaris UK Grand Prix Lineup Has Been Revealed.

 

The thirteenth Polaris event was originally scheduled for the 4th of April and was set to be an Absolute Grand Prix featuring entrants from across the world like Nicky Rodriguez, Nathan Orchard, Adam Wardzinski and Kaynan Duarte. Sadly, the recent Coronavirus pandemic put the entire event in jeopardy and not only did it have to be postponed, given a new venue and arranged without any crowd in attendance, but travel restrictions have also limited the event to featuring solely UK-based athletes with an agreed weight limit of 90kg.

When the announcement was first made that the event would go ahead as a UK Grand Prix, there was a lot of speculation as to who would be competing. The two most likely competitors seem to have come to fruition as ADCC European Trials Winner and ADCC 2019 competitor, Ross Nicholls, and regular Polaris competitor with an unbeaten promotional record, Freddie Vosgrone, are both set to compete for the chance to win the $10,000 grand prize. As something of a surprise entrant, UFC fighter and popular UK grappler Tom Breese will also be competing in the Polaris UK Grand Prix as he does not currently have an MMA fight booked. Dominic Dillon, Taylor Pearman, Silviu Nastasa, River Dillon, and Shane Curtis will also be in the running for the grand prize, while a superfight has also been announced between two highly experienced UK competitors, Jed Hue and Dinu Bucalet.

 

Polaris 13 UK Grand Prix 720p Full Show Online

 

 

 

Watch online

 

 

Server 1

 

 

 

 

watch now

 

 

 

 

Server 2

 

 

 

watch now

 

 

 

Server-3

 

 

 

Polaris 13 Online

 

 

 

Uploaded By Site DX-TV.com

 

 

 

Download with premium account Links 

 

 

Keep2Share

 

 

nitroflare.com

 

 

rapidgator.net

 

 

uploadgig.com

 

 

 

dx-tv.com

 

urlfree.net

 878 total views,  7 views today

Leave a Reply

Your email address will not be published. Required fields are marked *

This site uses Akismet to reduce spam. Learn how your comment data is processed.

%d bloggers like this: