PCW UK 2018 05 18 Better Than A Bollard 720p WEB NCMP Watch / Download

PCW UK 2018 05 18 Better Than A Bollard 720p WEB NCMP Watch / Download

 

 

 

 


 

 

dx-tv.com

 

 

 

Complete name : PCW.UK.2018.05.18.Better.Than.A.Bollard.720p.WEB.h264-NCMP.mp4
Format : MPEG-4
Format profile : Base Media
Codec ID : isom
File size : 2.64 GiB
Duration : 2h 23mn
Overall bit rate : 2 635 Kbps
Writing application : Lavf55.12.100

Video
ID : 2
Format : AVC
Format/Info : Advanced Video Codec
Codec ID : avc1
Codec ID/Info : Advanced Video Coding
Duration : 2h 23mn
Bit rate mode : Variable
Bit rate : 2 501 Kbps
Width : 1 280 pixels
Height : 720 pixels
Display aspect ratio : 16:9
Frame rate mode : Variable
Frame rate : 49.354 fps
Minimum frame rate : 8.333 fps
Maximum frame rate : 50.000 fps
Color space : YUV
Chroma subsampling : 4:2:0
Bit depth : 8 bits
Scan type : Progressive
Bits/(Pixel*Frame) : 0.055
Stream size : 2.51 GiB (95%)

Audio
ID : 1
Format : AAC
Format/Info : Advanced Audio Codec
Format profile : LC
Codec ID : 40
Duration : 2h 23mn
Bit rate mode : Constant
Bit rate : 127 Kbps
Channel(s) : 2 channels
Channel positions : Front: L R
Sampling rate : 48.0 KHz
Compression mode : Lossy
Stream size : 131 MiB (5%)

 

 

 

PCW UK 2018 05 18 Better Than A Bollard 720p WEB NCMP Watch / Download

 

 

 

 

Watch online

 

 

Waiting finish converting video

 

 

Server 1

 

 

 

 

 

 

 

 

 

 

 

 

 

 

Server 2

 

 

 

 

 

 


 

 

 

 

 

Uploaded By Site DX-TV.com

 

 

 

open rar file to see this password

 

 

 

 

The password is : DX-TV.com

 

 

 

 

 

Uploaded.net + rapidgator.net

 

 

 

 

 

 
http://shrt10.com/w0Dgh

 
http://shrt10.com/DEj6
 

 

 

 

 

 

 

 

 

 

PCW UK 2018 05 18 Better Than A Bollard 720p WEB NCMP Watch / Download