PBC Top Rank PPV 2020 02 22 1080i

Watch PBC Top Rank PPV 2020 02 22 1080i 21 GB DX-TV

 

PBC Top Rank

 

 PBC Top Ran

 

 

 

 

PBC Top Rank PPV 2020 02 22 1080i 21 GB

Complete name : PBC-TopRank-PPV 02-22-2020.M2TS
Format : MPEG-TS
File size : 21.9 GiB
Duration : 3 h 51 min
Overall bit rate mode : Variable
Overall bit rate : 13.5 Mb/s
Maximum Overall bit rate : 14.1 Mb/s

Video
Menu ID : 1 (0x1)
Format : AVC
Codec ID : 27
Duration : 3 h 51 min
Bit rate : 12.2 Mb/s
Width : 1 920 pixels
Height : 1 080 pixels
Display aspect ratio : 16:9
Frame rate : 29.970 (30000/1001) FPS
Color space : YUV
Chroma subsampling : 4:2:0
Bit depth : 8 bits
Scan type : MBAFF
Scan order : Top Field First
Bits/(Pixel*Frame) : 0.197
Stream size : 19.8 GiB (90%)

Audio
Menu ID : 1 (0x1)
Format : AC-3
Codec ID : 129
Duration : 3 h 51 min
Bit rate mode : Constant
Bit rate : 640 kb/s
Channel(s) : 2 channels
Channel layout : L R
Sampling rate : 48.0 kHz
Frame rate : 31.250 FPS (1536 SPF)
Compression mode : Lossy
Delay relative to video : -23 ms
Stream size : 1.04 GiB (5%)
Service kind : Complete Main

 

 

 

Watch online

 

 

Waiting finish converting video

 

 

Server 1

 

 

 


 

 

 

Server 2

 

 

 


 

 

 

PBC Top Rank PPV 2020 02 22 1080i 21 GB

 

 

Uploaded By Site DX-TV.com

 

 

 

1fichier.com 

https://shrt10.com/x33wcmDc
https://shrt10.com/ovUgHpM8
https://shrt10.com/Re4DP8c
https://shrt10.com/sAKDZ3w
https://shrt10.com/z0auON
https://shrt10.com/jvsyv3Tua
https://shrt10.com/HrAgdkT
https://shrt10.com/utZBkEFp
https://shrt10.com/YD6Pzmdl
https://shrt10.com/pCNAS
https://shrt10.com/vRNf33te
https://shrt10.com/FTkJNXU
https://shrt10.com/X8E9EsKY5

 

Download with premium account Links 

 

 

alfafile.net

https://shrt10.com/0RVFtyZJf
https://shrt10.com/G78jPQAuM
https://shrt10.com/8UgarwA
https://shrt10.com/gtXLAk
https://shrt10.com/ze0RpTgH
https://shrt10.com/6rthY
https://shrt10.com/5rmLh3n
https://shrt10.com/SRRD2vbm
https://shrt10.com/OCdFpsd
https://shrt10.com/9ngEs
https://shrt10.com/1qesYlG2x
https://shrt10.com/ogPb0hrUI
https://shrt10.com/3nhLZ

 

 

1 Link 21 GB

rapidgator.net

 

 

 

dx-tv.com

 

Leave a Reply

Your email address will not be published. Required fields are marked *

This site uses Akismet to reduce spam. Learn how your comment data is processed.

%d bloggers like this: