PBC PPV Errol Spence Jr vs Danny Garcia 05-12-2020 DX-TV

PBC PPV Errol Spence Jr vs Danny Garcia 05-12-2020 DX-TV

PBC PPV Errol Spence Jr vs Danny Garcia

PBC PPV Errol Spence Jr vs Danny Garcia

 

[su_expand more_text=”Show More Info” less_text=”Close all Info” height=”50″ text_color=”#000000″ link_color=”#e25f8b” link_style=”button” more_icon=”icon: arrow-down” less_icon=”icon: arrow-up”]
Complete name : PBC PPV Errol Spence Jr vs. Danny Garcia 05-12-2020 HDTV Full Show.mp4
Format : MPEG-4
Format profile : Base Media
Codec ID : mp42
File size : 2.40 GiB
Duration : 3 h 44 min
Overall bit rate : 1 531 kb/s

PBC PPV Errol Spence Jr vs Danny Garcia

Video
ID : 1
Format : AVC
Duration : 3 h 44 min
Bit rate : 1 361 kb/s
Width : 720 pixels
Height : 480 pixels
Display aspect ratio : 16:9
Frame rate mode : Variable
Frame rate : 29.970 FPS
rate : 12.628 FPS
Standard : NTSC
Color space : YUV
Chroma subsampling : 4:2:0
Bit depth : 8 bits
Scan type : Progressive
Bits/(Pixel*Frame) : 0.131
Stream size : 2.13 GiB
Color range : Limited
Color primaries : BT.709
Transfer characteristics : BT.709
Matrix coefficients : BT.709
Codec configuration box : avc

PBC PPV Errol Spence Jr vs Danny Garcia

Audio
ID : 2
Format : AAC LC
Format/Info : Advanced Audio
Codec ID : mp4a-40-2
Duration : 3 h 44 min
Bit rate mode : Constant
Bit rate : 161 kb/s
Channel(s) : 2 channels
Channel layout : L R
Sampling rate : 48.0 kHz
Frame rate : 46.875 FPS (1024 SPF)
Compression mode : Lossy
Stream size : 258 MiB (11%)
Title : Stereo
Default : Yes
Alternate group : 1

 PPV Errol Spence Jr vs Danny Garcia

Spence vs. Garcia fight card

  • Errol Spence Jr. vs. Danny Garcia, 12 rounds for Spence’s IBF and WBC welterweight titles
  • Sebastian Fundora vs. Jorge Cota, 12 rounds at junior middleweight
  • Julio Ceja vs. Eduardo Ramirez, 12 rounds at featherweight
  • Josesito Lopez vs. Francisco Santana, 10 rounds at welterweight
  • Miguel Flores vs. Isaac Avelar, 10 rounds at junior lightweight
  • Fernando Garcia vs. Juan Tapia, 8 rounds at featherweight
  • Frank Martin vs. TBA, 8 rounds at lightweight
  • Vito Mielnicki Jr. vs. Steven Pulluaim, 6 rounds at welterweight
  • Burley Brooks vs. Marco Delgado, 6 rounds at super middleweight

Errol Spence Jr vs Danny Garcia

PBC PPV Preliminary Card

Isaac Avelar vs Sakaria Lukas, 10 rounds, super featherweight

Vito Mielnicki Jr. vs. Steven Pulluaim, 6 rounds, welterweight

Burley Brooks vs. Marco Delgado, 6 rounds, super middleweight

Non-Televised Card

Fernando Garcia vs. Juan Tapia, 8 rounds featherweight

Frank Martin vs. Tyrone Lucky, 8 rounds lightweight

[/su_expand]

 

 

Watch online

 

Server 1

 

 

 

 

PBC PPV Errol Spence Jr vs Danny Garcia

 

 

 

 

Server-2

 

 

 

 

watch now

 

 

 

 

Uploaded By Site DX-TV.com

 

 

Download Links with premium High Speed   

 

 

 

 

dropapk.to

 

 

 

nitroflare.com

 

 

 

rapidgator.net

 

 

 

uploaded.net

 

 

 

uploadgig.com

 

 

https://dx-tv.com/free-aew-all-out-2020-ppv-720p-online/

Leave a Reply

Your email address will not be published. Required fields are marked *

This site uses Akismet to reduce spam. Learn how your comment data is processed.