PBC Pacquiao v Ugas PPV 2021 1080i Free Replay

PBC Pacquiao v Ugas PPV 2021 08 21 720p/ 1080i 40GB M2TS AC3 Online Free Replay DX-TV

PBC Pacquiao v Ugas

 PBC Pacquiao v Ugas

 

 

 

Download Links with premium High Speed
 


Dopapk

 

 

Show Links

 

 

http://shrt10.com/kwi598LlO
http://shrt10.com/SMmHbdb

http://shrt10.com/0z2nIw1S

 

[collapse]

 

 

 

 

Nitroflare

 

 

Show Links

 

 

http://shrt10.com/WAPfBpS
http://shrt10.com/IWbG2jeyi

http://shrt10.com/EUSrWF

 

 

[collapse]

 

 

Rapidgator

 

 

Show Links

 

 

http://shrt10.com/jebnghV
http://shrt10.com/Ms11OY367

 

 

[collapse]

 

 

 

Uploaded
 

Show Links

 

 

 

 
http://shrt10.com/WiJUE
http://shrt10.com/jHlZ4wHN

 

 

[collapse]

 

 

 

 

 

Watch online

 

Server 1

 

 

 

 

PBC Pacquiao v Ugas

 

 

 

 

Server-2

 

 

 

 

watch now

 

 

 

|Server-3

 

 

 

 

watch now

 

 

Uploaded By Site DX-TV.com

 

 

Show Info This Show

 

PBC Pacquiao v Ugas

Complete name : PBC On FOX 08-21-2021 HDTV 1080i M2TS AC3.M2TS
Format : MPEG-TS
File size : 38.8 GiB
Duration : 4 h 20 min
Overall bit rate mode : Variable
Overall bit rate : 21.3 Mb/s
Maximum Overall bit rate : 21.8 Mb/s

Video
Menu ID : 1 (0x1)
Format : AVC
Codec ID : 27
Duration : 4 h 20 min
Bit rate : 19.6 Mb/s
Width : 1 920 pixels
Height : 1 080 pixels
Display aspect ratio : 16:9
Frame rate : 29.970 (30000/1001) FPS
Color space : YUV
Chroma subsampling : 4:2:0
Bit depth : 8 bits
Scan type : MBAFF
Scan order : Top Field First
Bits/(Pixel*Frame) : 0.316
Stream size : 35.7 GiB (92%)

PBC Pacquiao v Ugas

Audio
ID : 4352 (0x1100)
Menu ID : 1 (0x1)
Format : AC-3
Format/Info : Audio Coding 3
Commercial name : Dolby Digital
Codec ID : 129
Duration : 4 h 20 min
Bit rate mode : Constant
Bit rate : 640 kb/s
Channel(s) : 2 channels
Channel layout : L R
Sampling rate : 48.0 kHz
Frame rate : 31.250 FPS (
Compression mode : Lossy
Delay relative to video : -24 ms
Stream size : 1.16 GiB (3%)
Service kind : Complete Main

Watch Boxing 2019 07 20 Pacquiao vs Thurman PPV

Complete name : PBC Pacquiao v Ugas PPV 720p 2021 08 21 BY DX-TV.COM.mp4
Format : MPEG-4
Format profile : Base Media
Codec ID : mp42
File size : 3.88 GiB
Duration : 3 h 25 min
Overall bit rate : 2 702 kb/s

PBC Pacquiao v Ugas

Video
ID : 1
Format : AVC
Format/Info : Advanced Video
Duration : 3 h 25 min
Bit rate : 2 553 kb/s
Width : 1 280 pixels
Height : 720 pixels
Display aspect ratio : 16:9
Frame rate mode : Variable
Frame rate : 25.626 FPS
Minimum frame rate : 0.200 FPS
Maximum frame rate : 30.000 FPS
Color space : YUV
Chroma subsampling : 4:2:0
Bit depth : 8 bits
Scan type : Progressive
Bits/(Pixel*Frame) : 0.108
Stream size : 3.67 GiB (95%)
Color range : Limited
Color primaries : BT.709
Transfer characteristics : BT.709
Matrix coefficients : BT.709
Codec configuration box : avcC

Audio
ID : 2
Format : AAC LC
Format/Info : Advanced Audio
Codec ID : mp4a-40-2
Duration : 3 h 25 min
Bit rate mode : Constant
Bit rate : 141 kb/s
Channel(s) : 2 channels
Channel layout : L R
Sampling rate : 48.0 kHz
Frame rate : 46.875 FPS (1024 SPF)
Compression mode : Lossy
Stream size : 207 MiB (5%)
Title : Stereo
Default : Yes
Alternate group : 1

Complete name : PBC Pacquiao v Ugas PPV 2021 08 21 BY DX-TV.COM.mp4
Format : MPEG-4
Format profile : Base Media
Codec ID : mp42
File size : 1.65 GiB
Duration : 3 h 25 min
Overall bit rate : 1 152 kb/s

PBC Pacquiao v Ugas

Video
ID : 1
Format : AVC
Format/Info : Advanced Video
Duration : 3 h 25 min
Bit rate : 1 017 kb/s
Width : 720 pixels
Height : 480 pixels
Display aspect ratio : 3:2
Frame rate mode : Constant
Frame rate : 30.000 FPS
Color space : YUV
Chroma subsampling : 4:2:0
Bit depth : 8 bits
Scan type : Progressive
Bits/(Pixel*Frame) : 0.098
Stream size : 1.46 GiB (88%)
Language : English
Codec configuration box : avcC

Audio
ID : 2
Format : AAC LC
Codec ID : mp4a-40-2
Duration : 3 h 25 min
Bit rate mode : Constant
Bit rate : 128 kb/s
Channel(s) : 2 channels
Channel layout : L R
Sampling rate : 44.1 kHz
Frame rate : 43.066 FPS (1024 SPF)
Compression mode : Lossy
Stream size : 188 MiB (11%)
Title : Stereo
Language : English
Default : Yes
Alternate group : 1

 

[collapse]

 

 

https://dx-tv.com/

1 Comment

  1. Thanks for UFC and Pacquiao Boxing this week . Please upload “PFL 2021 #8: Playoffs ” full event replay , Prelims is televised by ESPN+ and Main Card is on ESPN2 and ESPN+ , Thanks .

Leave a Reply

Your email address will not be published. Required fields are marked *

This site uses Akismet to reduce spam. Learn how your comment data is processed.