PBC On Showtime PPV Davis vs Santa 2020 10 31 1080i

Watch PBC On Showtime 2020 10 31 1080i PPV Davis vs Santa DX-TV

PBC On Showtime 2020 10 31

 

 Showtime PPV Free Davis vs Santa
 


 

 

PBC On Showtime PPV Davis vs Santa 2020 10 31 1080i

 

 

 

HOW CAN I STREAM DAVIS VS. SANTA CRUZ?

In addition to traditional cable and satellite services,

the Davis vs Santa Cruz fight can be streamed via sho.com in the U.S.

HOW MUCH DOES DAVIS VS. SANTA CRUZ COST?

The Davis vs. Santa Cruz fight card carries a price tag of $74.99 in the U.S., plus applicable taxes and fees. 

PBC On Showtime 2020 10 31

WHAT TIME IS DAVIS VS. SANTA CRUZ?

  • Date: Saturday, Oct. 31
  • PPV main card: 9 p.m. ET | 6 p.m. PT

The PPV main card is at 9 p.m. ET. The Davis vs. Santa Cruz main event is expected to begin at 12:15 a.m.

ET, depending on how long the earlier bouts go.

PBC On Showtime 2020 10 31

DAVIS VS. SANTA CRUZ FIGHT CARD

  • Gervonta Davis vs. Leo Santa Cruz for Davis’ WBA (regular) lightweight and Santa Cruz’s WBA (super) junior lightweight title
  • Mario Barrios vs. Ryan Karl for Barrios’ WBA (regular) Junior Welterweight title
  • Regis Prograis vs. Juan Heraldez; Junior Welterweight
  • Diego Magdaleno vs. Isaac Cruz; Lightweight 
  • Michel Rivera vs. Ladarius Miller; Lightweight
  • Jerry Perez vs. Joshua Zuniga; Junior Lightweight
  • Julian Rodarte vs. Jose Morales; Lightweight
  • Kent Cruz vs. Dieumerci Nzau; Welterweight
  • Anthony Cuba vs. Leon Cavalli; Lightweight

PBC On Showtime 2020 10 31

Complete name : PBC On Showtime 10-31-2020 1080i TS AC3.M2TS
Format : MPEG-TS
File size : 26.7 GiB
Duration : 2 h 58 min
Overall bit rate : 21.3 Mb/s
Overall bit rate : 21.8 Mb/s

Video
Menu ID : 1 (0x1)
Format : AVC
Codec ID : 27
Duration : 2 h 58 min
Bit rate : 19.6 Mb/s
Width : 1 920 pixels
Height : 1 080 pixels
Display ratio : 16:9
Frame rate : 29.970 FPS
Color space : YUV
Chroma sampling : 4:2:0
Bit depth : 8 bits
Scan type : MBAFF
Scan order : Top Field First
Bits/(Pixel*Frame) : 0.316
Stream size : 24.6 GiB

PBC On Showtime 2020 10 31

Audio
Format : AC-3
Format/Info : Audio Coding 3
Commercial name : Dolby Digital
Codec ID : 129
Duration : 2 h 58 min
Bit rate mode : Constant
Bit rate : 640 kb/s
Channel(s) : 2 channels
Channel layout : L R
Sampling rate : 48.0 kHz
Frame rate : 31.250 FPS
Compression mode : Lossy
Delay relative to video : -8 ms
Stream size : 819 MiB
Service kind : Complete Main

 

 

 

PBC On Showtime PPV Davis vs Santa 2020 10 31 1080i

 

Watch online

 

 

Server 1

 

 

PBC On Showtime 2020 10 31

 

 

 

 

Server-2

 

 

 

watch now

 

 

 

 

 

 

 

Uploaded By Site DX-TV.com

 

PBC On Showtime 2020 10 31

Download Links with premium High Speed   

 

 

 

 

dropapk.to

http://shrt10.com/qQTtWHCn
http://shrt10.com/p3M9Qi8a
http://shrt10.com/X5tNG
http://shrt10.com/DPHHhOFSe
http://shrt10.com/InURU
http://shrt10.com/2Va4X
http://shrt10.com/w013inlWC

 

 

nitroflare.com

http://shrt10.com/pDi3g2u5G
http://shrt10.com/fsgC4GY
http://shrt10.com/RkZer
http://shrt10.com/9l9VY
http://shrt10.com/YayGw9
http://shrt10.com/XCSwl
http://shrt10.com/44gVVT

 

1 Link 26GB

rapidgator.net

 

 

 

uploaded.net

http://shrt10.com/R7nuqVTeI
http://shrt10.com/E9gVo3D
http://shrt10.com/zA9CD9wg5
http://shrt10.com/SOkM4
http://shrt10.com/B5J2XdzU
http://shrt10.com/lrkEL1
http://shrt10.com/4h3XjO

 

 

uploadgig.com

http://shrt10.com/oitXG3bv
http://shrt10.com/E3cXcyLN
http://shrt10.com/uTjsNmP
http://shrt10.com/A2Y66Ohl
http://shrt10.com/BuAg6h
http://shrt10.com/qt2GuuT8e
http://shrt10.com/yIAP80c0E

 

 

 

 

dx-tv.com

 

urlfree.net

Leave a Reply

Your email address will not be published. Required fields are marked *

This site uses Akismet to reduce spam. Learn how your comment data is processed.