PBC On FS1 14 11 2020 HDTV 1080p Free Online

Watch PBC On FS1 14 11 2020 HDTV 1080p Free Online DX-TV

PBC On FS1 Free Online

 

 PBC On FS1 Free Online

 

PBC On FS1 14 11 2020 HDTV 1080p Free Online

 

Complete name : PBC On FS1 11-14-2020 HDTV 1080p MP4 AAC.mp4
Format : MPEG-4
Format profile : Base Media
Codec ID : isom
Duration : 1 h 31 min
Overall bit rate : 10.7 Mb/s

PBC On FS1 Free Online

Video
ID : 1
Format : AVC
Duration : 1 h 31 min
Bit rate : 10.4 Mb/s
Width : 1 920 pixels
Height : 1 080 pixels
Display aspect ratio : 16:9
Frame rate : 59.940 FPS
Color space : YUV
Chroma sampling : 4:2:0
Bit depth : 8 bits
Scan type : Progressive
Bits/(Pixel*Frame) : 0.084
Stream size : 6.66 GiB (97%)
Color range : Limited
Color primaries : BT.709
Transfer characteristics : BT.709
Matrix coefficients : BT.709
Menus : 3
Codec box : avc

PBC On FS1 Free Online

Audio
ID : 2
Format : AAC LC
Format/Info : Advanced Audio
Codec ID : mp4a-40-2
Duration : 1 h 31 min
Bit rate mode : Constant
Bit rate : 317 kb/s
Channel(s) : 2 channels
Channel layout : L R
Sampling rate : 48.0 kHz
Frame rate : 46.875 FPS (1024 SPF)
Compression mode : Lossy
Stream size : 208 MiB (3%)
Language : English
Default : Yes
Alternate group : 1
Menus : 3

PBC On FS1 Free Online

On his recent training camp.

“I spent the first month of camp in Las Vegas with Bob Santos, training and sparring with the Barrientes Twins (Angel and Chavez) and a few others.

When my fight got pushed back, I finished off camp in my hometown of San Jose and got good work with Victor Pasillas, as well as some other top fighters in the Bay Area.

My coach Martin Nunez, who has been with me since I turned professional, is making sure I’m peaking on fight night. It’s been a long camp and I’m in the best shape of my life.”

PBC On FS1 Free Online

On his matchup with Henry Arredondo.

“I know he’s a solid fighter with a lot of power. We’ve sparred before so I know what I need to do to be victorious. This by far will be the toughest fight of my career.

We are both undefeated so fans can expect to see two warriors giving it their all. When the final scorecards are read, I believe my hands will be raised in victory.”

On making his PBC televised debut.

“This is the turning point in my career being that it’s my televised PBC debut on FS1. I’m in the prime of my career and I’ll be at my best.

I’m going to make this fight a war by bringing a lot of pressure, making it a fan friendly fight.”

 

PBC On FS1 14 11 2020 HDTV 1080p Free Online

 

Watch online

 

 

Server 1

 

 

 

 

 

 

 

PBC On FS1 Free Online

Server-2

 

 

 

 

 

 

Uploaded By Site DX-TV.com

 

Download Links with premium High Speed   

 

 

 

nitroflare.com

 

 

 

rapidgator.net

 

 

 

dx-tv.com

 

urlfree.net

Leave a Reply

Your email address will not be published. Required fields are marked *

This site uses Akismet to reduce spam. Learn how your comment data is processed.