PBC Fight Night 2021 01 30 1080i DX-TV

PBC Fight Night 2021 01 30 480p /1080i DX-TV

PBC Fight Night 2021

 PBC Fight Night 2021

 

Download Links with premium High Speed   

 

 

dropapk.to

http://shrt10.com/PTTSKU1

 

 

nitroflare.com

http://shrt10.com/uvofTKz

 

 

rapidgator.net

http://shrt10.com/i7EjX

http://shrt10.com/441q4DWl    1080i

 

uploaded.net

http://shrt10.com/sY9WcUZU

 

 

 

Watch PBC Fight Night online

 

Server 1

 

 

 

 

PBC Fight Night

 

 

 

 

Server-2

 

 

 

 

watch now

 

 

Uploaded By Site DX-TV.com

 

 

Complete name : PBC Fight Night 01-30-2021 HDTV DX-TV.com.mp4
Format : MPEG-4
Format profile : Base Media
Codec ID : mp42
File size : 1.74 GiB
Duration : 3 h 27 min
Overall bit rate : 1 199 kb/s

PBC Fight Night

Video
ID : 1
Format : AVC
Format/Info : Advanced Video
Duration : 3 h 27 min
Bit rate : 1 029 kb/s
Width : 720 pixels
Height : 480 pixels
Display aspect ratio : 16:9
Frame rate mode : Variable
Frame rate : 29.970 FPS
Standard : NTSC
Color space : YUV
Chroma subsampling : 4:2:0
Bit depth : 8 bits
Scan type : Progressive
Bits/(Pixel*Frame) : 0.099
Stream size : 1.49 GiB (86%)
Color range : Limited
Color primaries : BT.709
Transfer characteristics : BT.709
Matrix coefficients : BT.709
Codec configuration box : avc

PBC Fight Night

Audio
ID : 2
Format : AAC LC
Format/Info : Advanced Audio
Codec ID : mp4a-40-2
Duration : 3 h 27 min
Bit rate mode : Constant
Bit rate : 161 kb/s
Channel(s) : 2 channels
Channel layout : L R
Sampling rate : 48.0 kHz
Frame rate : 46.875 FPS (1024 SPF)
Compression mode : Lossy
Stream size : 239 MiB (13%)
Title : Stereo
Language : English
Default : Yes
Alternate group : 1

Complete name : PBC Fight Night 01-30-2021 HDTV 1080i TS AC3.ts
Format : MPEG-TS
File size : 30.6 GiB
Duration : 3 h 48 min
Overall bit rate mode : Constant
Overall bit rate : 19.2 Mb/s

PBC Fight Night

Video
Menu ID : 1 (0x1)
Format : AVC
Codec ID : 27
Duration : 3 h 27 min
Bit rate : 17.6 Mb/s
Width : 1 920 pixels
Height : 1 080 pixels
Display aspect ratio : 16:9
Frame rate : 29.970 FPS
Color space : YUV
Chroma subsampling : 4:2:0
Bit depth : 8 bits
Scan type : MBAFF
Scan order : Top Field First
Bits/(Pixel*Frame) : 0.283
Stream size : 25.5 GiB (83%)

PBC Fight Night

Audio

Format : AC-3
Format/Info : Audio Coding 3
Commercial name : Dolby Digital
Codec ID : 129
Duration : 3 h 48 min
Bit rate mode : Constant
Bit rate : 640 kb/s
Channel(s) : 6 channels
Channel layout : L R C LFE Ls Rs
Sampling rate : 48.0 kHz
Frame rate : 31.250 FPS
Compression mode : Lossy
Stream size : 1.02 GiB (3%)
Language : English
Service kind : Complete Main

 

Audio

Format : AC-3
Format/Info : Audio Coding 3
Commercial name : Dolby Digital
Codec ID : 129
Duration : 3 h 48 min
Bit rate mode : Constant
Bit rate : 640 kb/s
Channel(s) : 6 channels
Channel layout : L R C LFE Ls Rs
Sampling rate : 48.0 kHz
Frame rate : 31.250 FPS
Compression mode : Lossy
Stream size : 1.02 GiB (3%)
Language : English
Service kind : Complete Main

https://dx-tv.com/

You May Also Like

1 Comment

Leave a Reply

Your email address will not be published. Required fields are marked *

This site uses Akismet to reduce spam. Learn how your comment data is processed.