PBC Colbert Vs Arboleda 2020 12 12 Feed 1080i 24GB DX-TV

PBC Chris Colbert Vs Jaime Arboleda 2020 12 12 720p /1080i Feed 24GB DX-TV

PBC Colbert Vs Arboleda

 Showtime Boxing Colbert Vs Arboleda

 

Download Links with premium High Speed   

 

 

dropapk.to

http://shrt10.com/5KyVRwl

 

 

nitroflare.com

http://shrt10.com/NUPjlnzzt

 

 

rapidgator.net

http://shrt10.com/M4J2gSgtF

http://shrt10.com/tMTm42PwN          23 GB1 Link

 

uploaded.net

http://shrt10.com/9MXs8

 

 

uploadgig.com

http://shrt10.com/WeVidQW

 

Watch online

 

Server 1

 

 

 

 

PBC Colbert Vs Arboleda

 

 

 

 

Server-2

 

 

 

 

watch now

 

 

 

 

Uploaded By Site DX-TV.com

 Colbert Vs Arboleda

[su_expand more_text=”Show More Info” less_text=”Close all Info” height=”50″ text_color=”#000000″ link_color=”#e25f8b” link_style=”button” more_icon=”icon: arrow-down” less_icon=”icon: arrow-up”]
Complete name : Showtime.Boxing.2020.12.12.Chris.Colbert.Vs.Jaime.Arboleda.720p DX-TV.com.mp4
Format : MPEG-4
Format profile : Base Media
File size : 2.92 GiB
Duration : 2 h 57 min
Overall bit rate : 2 361 kb/s

Video
ID : 1
Format : AVC
Duration : 2 h 57 min
Bit rate : 2 191 kb/s
Width : 1 280 pixels
Height : 720 pixels
Display aspect ratio : 16:9
Frame rate mode : Constant
Frame rate : 30.000 FPS
Color space : YUV
Chroma subsampling : 4:2:0
Bit depth : 8 bits
Scan type : Progressive
Bits/(Pixel*Frame) : 0.079
Stream size : 2.71 GiB (93%)
Color range : Limited
Color primaries : BT.709
Transfer characteristics : BT.709
Matrix coefficients : BT.709
Codec configuration box : avc

PBC Colbert Vs Arboleda

Audio
ID : 2
Format : AAC LC
Codec ID : mp4a-40-2
Duration : 2 h 57 min
Bit rate mode : Constant
Bit rate : 161 kb/s
Channel(s) : 2 channels
Channel layout : L R
Sampling rate : 44.1 kHz
Frame rate : 43.066 FPS
Compression mode : Lossy
Stream size : 204 MiB (7%)
Title : Stereo
Default : Yes
Alternate group : 1

Complete name : PBC.2020.12.12.Colbert.Vs.Arboleda.PPV.1080i.HDTV DX-TV.ts
Format : MPEG-TS
File size : 23.5 GiB
Duration : 3 h 24 min
Overall bit rate mode : Variable
Overall bit rate : 16.4 Mb/s

PBC Colbert Vs Arboleda

Video
Format : AVC
Codec ID : 27
Duration : 3 h 24 min
Bit rate : 14.4 Mb/s
Width : 1 920 pixels
Height : 1 080 pixels
aspect ratio : 16:9
Frame rate : 25.000 FPS
Color space : YUV
Chroma subsampling : 4:2:0
Bit depth : 8 bits
Scan type : Interlaced
Bits/(Pixel*Frame) : 0.279
Stream size : 20.7 GiB (88%)
Color range : Limited
Color primaries : BT.709
Transfer characteristics : BT.709
Matrix coefficients : BT.709

Audio #1
Format : MPEG Audio
version : Version 1
Format profile : Layer 2
Codec ID : 3
Duration : 3 h 24 min
Bit rate mode : Constant
Bit rate : 384 kb/s
Channel(s) : 2 channels
Sampling rate : 48.0 kHz
Frame rate : 41.667 FPS (1152 SPF)
Compression mode : Lossy
Delay relative to video : -318 ms
Stream size : 562 MiB (2%)
Language : English

PBC Colbert Vs Arboleda

Audio #2
ID : 103 (0x67)
Menu ID : 1 (0x1)
Format : MPEG Audio
version : Version 1
Format profile : Layer 2
Codec ID : 3
Duration : 3 h 24 min
Bit rate mode : Constant
Bit rate : 384 kb/s
Channel(s) : 2 channels
Sampling rate : 48.0 kHz
Frame rate : 41.667 FPS
Compression mode : Lossy
Delay relative to video : -333 ms
Stream size : 562 MiB (2%)
Language : English

Audio #3
ID : 104 (0x68)
Menu ID : 1 (0x1)
Format : MPEG Audio
version : Version 1
Format profile : Layer 2
Codec ID : 3
Duration : 3 h 24 min
Bit rate mode : Constant
Bit rate : 384 kb/s
Channel(s) : 2 channels
Sampling rate : 48.0 kHz
Frame rate : 41.667 FPS
Compression mode : Lossy
Delay relative to video : -317 ms
Stream size : 562 MiB (2%)
Language : English

PBC Colbert Vs Arboleda

Menu
ID : 307 (0x133)
Menu ID : 1 (0x1)
Duration : 3 h 24 min
List : 101 (0x65) (AVC) / 102 (0x66) (MPEG Audio, English) / 103 (0x67) (MPEG Audio, English) / 104 (0x68) (MPEG Audio, English)
Language : / English / English / English
Maximum bit rate : 200000000

 

[/su_expand]

 

https://dx-tv.com/

Leave a Reply

Your email address will not be published. Required fields are marked *

This site uses Akismet to reduce spam. Learn how your comment data is processed.