Paradigm Trapsoul full show online 2020 10 11 720p

Watch Paradigm Trapsoul full show online 2020 10 11 720p DX-TV

 

Paradigm Trapsoul full show 

 

 Paradigm Trapsoul full show online

Paradigm Trapsoul full show online 2020 10 11 720p

 

Tag Team Championships
Reject’s Rules Match

The Rejects (AKIRA, John Wayne Murdock, & Reed Bentley) def. Earl’s Picks (Hardway Heeter, Juicy Jimmy, & Nolan Edward) to retain the titles

Suge D def. O’Shay Edwards

UWFi Rules Super Fight
Dominic Garrini def. Kevin Ku

UWFi Rules Super Fight
Hoodfoot def. Erick Stevens

UWFi Rules Super Fight
Flash Thompson def. Cole Radrick

Heavy Hitters Championship
Street Fight

Bobby Beverly def. Alex Colon to win the title

Midwest Territory Championship
Chase Holliday def. Sonico to retain the title

Naptown Elimination Scramble Match
Billie Starkz def. Adam Slade, Brayden Lee, Dylan Derringer, Freddie Hudson, Freddie Hudson,

Miles Morales, Zay Washington, Shawn Kemp & Juicy Finao

 

Paradigm Trapsoul full show 

Naptown Elimination Scramble Match
Adam Slade vs. Billie Starkz vs. Brayden Lee vs. Dylan Derringer vs. Freddie Hudson vs.

Freddie Hudson vs. Miles Morales vs. Zay Washington vs. Shawn Kemp vs. Juicy Finao

The match begins with Finao getting attacked by the majority of his opponents, everybody takes each other out with continuous suicide dives. Kemp gets in the ring and he prevents Lee from making a dive, Kemp takes everybody out with a dive of his own. Lee finally completes his suicide dive and he takes a bunch of people out, Finao returns and he takes everybody down with a dive from the ring apron. Everybody battles towards the crowd and Washington takes everybody out with a dive from the bleachers, Washington and Lee battle in the ring. Washington nails Lee with a split legged moonsault for a near fall, Kemp returns and he nails Washington with a psycho driver.

Paradigm Trapsoul full show 

Everybody takes turns entering the ring and taking each other out, Lee gets back in the ring and he attacks Hudson. Lee takes out Hudson with a modified gut buster, Starkz gets in the ring and she cracks Lee with knee strikes followed by some kicks. Starkz knocks Lee out of the ring after landing a release German suplex, Finao gets in the ring and he drops Starkz with a flapjack. Multiple wrestlers hit the ring and Finao takes everybody out, Finao nails Hudson and Derringer with a double Samoan drop for a near fall.

Paradigm Trapsoul full show 

Complete name : Paradigm.2020.10.11.Trapsoul.720p.WEB.h264-HEEL.mp4
Format : MPEG-4
Format profile : Base Media
Codec ID : isom
File size : 2.36 GiB
Duration : 2 h 46 min
Overall bit rate mode : Variable
Overall bit rate : 2 022 kb/s
Writing application : Lavf58.32.104

Trapsoul full show 

Video
ID : 1
Format : AVC
Duration : 2 h 46 min
Bit rate : 1 918 kb/s
Width : 1 280 pixels
Height : 720 pixels
Display aspect ratio : 16:9
Frame rate mode : Variable
Frame rate : 29.970 FPS
Color space : YUV
Chroma : 4:2:0
Bit depth : 8 bits
Scan type : Progressive
Bits/(Pixel*Frame) : 0.069
Stream size : 2.23 GiB (95%)
Codec configuration box : avcC

Trapsoul full show 

Audio
ID : 2
Format : AAC LC
Format/Info : Advanced Audio
Codec ID : mp4a-40-2
Duration : 2 h 46 min
Bit rate mode : Variable
Bit rate : 96.0 kb/s
Maximum bit rate : 98.6 kb/s
Channel(s) : 2 channels
Channel layout : L R
Sampling rate : 48.0 kHz
Frame rate : 46.875 FPS
Compression mode : Lossy
Stream size : 113 MiB (5%)
Default : Yes
Alternate group : 1

Paradigm Trapsoul full show online 2020 10 11 720p

 

 

Watch online

 

 

Server 1

 

 

 

 

watch now

 

 

 

 

Server-2

 

 

 

watch now

 

 

 

 

Server-3

 

 

 

Paradigm Trapsoul full show online

 

 

 

 

Uploaded By Site DX-TV.com

 

 

 

 

Download Free Links with normal and high Speed [ more 14 hosts ]  

 

 

 

http://shrt10.com/W5pBq
http://shrt10.com/ilH6VuR
http://shrt10.com/pUTgXixs
http://shrt10.com/jAF4TeKt
http://shrt10.com/zpft56
http://shrt10.com/25t1WPZS8
http://shrt10.com/QMBBLxyS
http://shrt10.com/c6LTtU8v

 

 

 

 

Download Links with premium High Speed   

 

 

 

dropapk.to

 

 

 

nitroflare.com

 

 

 

rapidgator.net

 

 

 

uploaded.net

 

 

 

uploadgig.com

 

 

 

 

 

dx-tv.com

 

urlfree.net

Leave a Reply

Your email address will not be published. Required fields are marked *

This site uses Akismet to reduce spam. Learn how your comment data is processed.