Online WWE Smackdown 31 07 2020 720p

Watch Online WWE Smackdown 31 07 2020 720p DX-TV

 

Online Smackdown
 

 Free Smackdown Full Show

 

Online WWE Smackdown 31 07 2020 720p

 

 

 

Complete name : WWE.SmackDown.2020.07.31.720p.WEB.h264-HEEL.mp4
Format : MPEG-4
Format profile : Base Media
Codec ID : isom
File size : 6.58 GiB Smackdown
Duration : 1 h 27 min
Overall bit rate mode : Variable
Overall bit rate : 10.8 Mb/s
Law rating : TV-PG (DLSV)
Writing : Lavf58.32.104

 WWE Smackdown 31 07 2020 720p

Video
ID : 1
Format : AVC
Duration : 1 h 27 min
Bit rate mode : Variable
Bit rate : 10.7 Mb/s
Maximum bit rate : 12.0 Mb/s
Width : 1 280 pixels
Height : 720 pixels
Display aspect ratio : 16:9
Frame rate mode : Variable 
Minimum rate : 59.016 FPS
frame rate : 60.893 FPS
Original frame rate : 60.000 FPS
Color space : YUV
Chroma sub sampling : 4:2:0
Bit depth : 8 bits
Scan type : Progressive
Bits/(Pixel*Frame) : 0.194
Stream size : 6.54 GiB (99%)
Color range : LimitedSmackdown
Color primaries : BT.709
Transfer characteristics : BT.709
Matrix coefficients : BT.709
Codec configuration box : avcC

Online WWE Smackdown 31 07 2020 720p

Audio
ID : 2
Format/Info : Advanced
Commercial name : HE-AAC
Format settings : Implicit
Codec ID : mp4a-40-2
Duration : 1 h 27 min
Bit rate mode : Variable
Bit rate : 62.6 kb/s
Maximum bit rate : 68.3 kb/s
Channel(s) : 2 channels
Channel layout : L R
Sampling rate : 48.0 kHz
Frame rate : 23.438 FPS Smackdown
Compression mode : Lossy
Stream size : 39.0 MiB (1%)
Default : Yes
Alternate group : 1

 WWE Smackdown 31 07 2020 720p

but an assist from Sasha Banks’ Boss rings helped Bayley retain her title with one crushing blow to the ribs.  Online Smackdown

Last week on SmackDown, Bayley was in the giving spirit as she offered a title opportunity to the winner of an impromptu Cross vs.

Bliss singles bout. The match created tension among the tag team partners, but Cross was fueled by her desire to get payback.

Will Cross finally topple Bayley from her throne above the blue brand? Or will it be another showcase for “The Golden Role Models”?

Tune in to Friday Night SmackDown on FOX at 8/7 C to see who comes out victorious. 

 

 WWE Smackdown 31 07 2020 720p

 

 

 

Watch online

 

 

Server 1

 

 

 

 

watch now

 

 

 

 

Server 2

 

 

 

Free Smackdown Full Show

 

 

 

Server-3

 

 

 

watch now

 

 

 

Uploaded By Site DX-TV.com Online Smackdown

 

 

 

Download with premium account Links 

 

 

Keep2Share

 

 

nitroflare.com

 

 

rapidgator.net

 

 

uploadgig.com

 

 

 

dx-tv.com

 

urlfree.net

 72 total views,  8 views today

Leave a Reply

Your email address will not be published. Required fields are marked *

This site uses Akismet to reduce spam. Learn how your comment data is processed.

%d bloggers like this: