ONE Championship Unstoppable Dreams 720p HDTV Ebi Watch / Download

ONE Championship Unstoppable Dreams 720p HDTV Ebi Watch / Download

 

 

 


 

 

dx-tv.com

 

 

 

 

 

Complete name : ONE.Championship.Unstoppable.Dreams.720p.HDTV.x264-Ebi.mp4
Format : MPEG-4
Format profile : Base Media / Version 2
Codec ID : mp42
File size : 7.80 GiB
Duration : 3h 57mn
Overall bit rate : 4 698 Kbps
Encoded date : UTC 2018-05-19 02:29:43
Tagged date : UTC 2018-05-19 02:29:43

Video
ID : 1
Format : AVC
Format/Info : Advanced Video Codec
Codec ID : avc1
Codec ID/Info : Advanced Video Coding
Duration : 3h 57mn
Bit rate mode : Variable
Bit rate : 4 500 Kbps
Width : 1 280 pixels
Height : 720 pixels
Display aspect ratio : 16:9
Frame rate mode : Constant
Frame rate : 29.970 fps
Color space : YUV
Chroma subsampling : 4:2:0
Bit depth : 8 bits
Scan type : Progressive
Bits/(Pixel*Frame) : 0.163
Stream size : 7.47 GiB (96%)

Audio
ID : 2
Format : AAC
Format/Info : Advanced Audio Codec
Format profile : LC
Codec ID : 40
Duration : 3h 57mn
Bit rate mode : Variable
Bit rate : 192 Kbps
Channel(s) : 2 channels
Channel positions : Front: L R
Sampling rate : 48.0 KHz
Compression mode : Lossy
Stream size : 327 MiB (4%)
Title : Stereo
Encoded date : UTC 2018-05-19 02:29:43
Tagged date : UTC 2018-05-19 02:29:43

 

 

 

 

ONE Championship Unstoppable Dreams 720p HDTV Ebi Watch / Download

 

 

 

 

Watch online

 

 

Waiting finish converting video

 

 

Server 1

 

 

 

 

 

 

 

 

 

 

 

 

 

 

 

 

Server 2

 

 

 

 

 

 

 

 

 

 

 

 

 

 

Uploaded By Site DX-TV.com

 

 

 

open rar file to see this password

 

 

 

 

The password is : DX-TV.com

 

 

 

 

 

 

 

Uploaded.net + rapidgator.net

 

 

 

 

 

 
http://shrt10.com/M5AVuIa
 

http://shrt10.com/ELcKLD
 

http://shrt10.com/6b12Xj5
 

http://shrt10.com/BG3ZsqQ1
 

 
http://shrt10.com/54O9HE1
 

 
http://shrt10.com/NkWW8Lm
 

 
http://shrt10.com/rumiq
 

 

 

 

 

 

 

ONE Championship Unstoppable Dreams 720p HDTV Ebi Watch / Download

Leave a Reply

Your email address will not be published. Required fields are marked *

WhatsApp chat
%d bloggers like this: