One Championship Reign Of Dynasties 2020 Full Show Online

Watch One Championship Reign Of Dynasties 1080p DX-TV

 

One Championship Reign Of Dynasties

 

 One Championship Reign Of Dynasties

 

One  Reign Of Dynasties 2020 Full Show Online

 

 

Complete name : One.Championship.Reign.Of.Dynasties.1080p.WEBRip.h264-TJ.mp4
Format : MPEG-4
Format profile : Base Media
Codec ID : isom
File size : 3.49 GiB
Duration : 2 h 13 min
Overall bit rate : 3 726 kb/s
Writing application : Lavf58.20

One Championship Reign Of Dynasties

Video
ID : 1
Format : AVC
Duration : 2 h 13 min
Duration_FirstFrame : -40 ms
Bit rate : 3 592 kb/s
Width : 1 920 pixels
Height : 1 080 pixels
Display aspect ratio : 16:9
Frame rate mode : Variable
Frame rate : 25.000 FPS 
Color space : YUV
Chroma subsampling : 4:2:0
Bit depth : 8 bits
Scan type : Progressive
Bits/(Pixel*Frame) : 0.069
Stream size : 3.36 GiB (96%)
Color range : Limited
Color primaries : BT.709
Transfer characteristics : BT.709
Matrix coefficients : BT.709
Codec configuration box : avcC

One Championship Reign Of Dynasties

Audio
ID : 2
Format : AAC LC
Format/Info : Advanced Audio
Codec ID : mp4a-40-2
Duration : 2 h 13 min
Bit rate mode : Constant
Bit rate : 128 kb/s
Channel(s) : 2 channels
Channel layout : L R
Sampling rate : 44.1 kHz
Frame rate : 43.066 FPS
Compression mode : Lossy
Stream size : 123 MiB (3%)
Default : Yes
Alternate group : 1

 Championship Reign Of Dynasties

While Reign of Dynasties, the promotion’s first fight back in Singapore, started small, it was a step in the right direction. Already announced was Inside the Matrix, with four MMA title bouts topping the card on October 30. First up, however, was a six-fight card from Singapore featuring five MMA contests, and a main event featuring two-sport ONE champ Sam-A Gaiyanghadao defending his ONE Strawweight Muay Thai World Title against Australia’s Josh Tonna.

Also on the card Friday, Finnish prospect Aleksi Toivonen, an Evolve MMA fighter with an undefeated record to start the night. Coming off a submission of Akihiro Fujisawa, Toivonen was paired up with ONE mainstay Reece McLaren.

One Championship Reign Of Dynasties

Friday’s action was set to kick off at 8:30AM ET — check back for results. The official live stream can be viewed above (where available).

ONE Championship: Reign of Dynasties Results
Sam-A Gaiyanghadao def. Josh Tonna by TKO, Round 2, 2:30 – for the ONE strawweight Muay Thai world championship

Reece McLaren def. Aleksi Toivonen by knockout, Round 1, 4:18
Amir Khan def. Rahul Raju by knockout, Round 1, 4:47
Eko Roni Saputra def. Murugan Silvarajoo by submission (shoulder lock), Round 1, 2:29
Hexigetu def. Dejdamrong Sor Amnuaysirichoke by split decision
Roshan Mainam def. Liu Peng Shuai by submission (rear-naked choke), Round 2, 2:27

 

 

One  Reign Of Dynasties 2020 Full Show Online

 

 

Watch online

 

 

 

Server 1

 

 

 

 

watch now

 

 

 

 

Server-2

 

 

 

watch now

 

 

 

 

Server-3

 

 

 

One Championship Reign Of Dynasties

 

 

 

 

Uploaded By Site DX-TV.com

 

 

 

 

Download Free Links with normal and high Speed [ more 14 hosts ]  

 

 

 

http://shrt10.com/x71de
http://shrt10.com/EgL1P
http://shrt10.com/oa2jIEeh
http://shrt10.com/EbWmytI0
http://shrt10.com/FbYDkiE8
http://shrt10.com/E0XRiFuq

 

 

 

 

Download Links with premium High Speed   

 

 

 

dropapk.to

 

 

 

nitroflare.com

 

 

 

rapidgator.net

 

 

 

uploaded.net

 

 

 

uploadgig.com

 

 

 

 

 

dx-tv.com

 

urlfree.net

Leave a Reply

Your email address will not be published. Required fields are marked *

This site uses Akismet to reduce spam. Learn how your comment data is processed.