NXT Free 2021 08 10 1080p WWE Online Replay

NXT Free 2021 08 10 1080p NWCHD WWE Online Replay DX-TV

NXT Free

 NXT Free

 

 

 

Download Links with premium High Speed


Dopapk

 

 

Show Links

 

http://shrt10.com/FQyiFvNeG
http://shrt10.com/Md2K4
http://shrt10.com/8GwVxpRk

 

[collapse]

 

 

Nitroflare

 

 

Show Links

 

http://shrt10.com/Svnjo
http://shrt10.com/RfrFXZVz
http://shrt10.com/ClvugWUN

 

[collapse]

 

 

Rapidgator

 

 

Show Links

 

http://shrt10.com/BHrh8
http://shrt10.com/OAS51
http://shrt10.com/rUdAxbf86

 

[collapse]

 

 

Uploaded

 

 

Show Links

 

http://shrt10.com/kNlYehc
http://shrt10.com/Im94wRcc

 

[collapse]

 

 

Watch online

 

Server 1

 

 

 

NXT Free

 

 

 

 

Server-2

 

 

 

 

watch now

 

 

 

|Server-3

 

 

 

 

watch now

 

 

Uploaded By Site DX-TV.com

 

 

Show Info This Show

 

NXT Free

Complete name : WWE.NXT.2021.08.10.720p.HDTV.x264-NWCHD.mp4
Format : MPEG-4
Format profile : Base Media
Codec ID : isom
File size : 3.17 GiB
Duration : 1 h 37 min
Overall bit rate : 4 642 kb/s

Video
ID : 1
Format : AVC
Format/Info : Advanced Video
Duration : 1 h 37 min
Bit rate : 4 500 kb/s
Width : 1 280 pixels
Height : 720 pixels
Display aspect ratio : 16:9
Frame rate mode : Variable
Frame rate : 29.970 (30000/1001) FPS
Minimum frame rate : 29.183 FPS
Maximum frame rate : 29.970 FPS
Color space : YUV
Chroma subsampling : 4:2:0
Bit depth : 8 bits
Scan type : Progressive
Bits/(Pixel*Frame) : 0.163
Stream size : 3.03 GiB (96%)
Color primaries : BT.709
Transfer characteristics : BT.709
Matrix coefficients : BT.709
Codec configuration box : avc

NXT Free

Audio
ID : 2
Format : AAC LC
Format/Info : Advanced Audio
Codec ID : mp4a-40-2
Duration : 1 h 37 min
Bit rate mode : Constant
Bit rate : 192 kb/s
Channel(s) : 2 channels
Channel layout : L R
Sampling rate : 48.0 kHz
Frame rate : 46.875 FPS
Compression mode : Lossy
Stream size : 134 MiB (4%)
Title : Stereo
Language : English
Default : Yes
Alternate group : 1

Complete name : WWE.NXT.2021.08.10.1080p.HDTV.x264-NWCHD.mp4
Format : MPEG-4
Format profile : Base Media / Version 2
Codec ID : mp42
File size : 5.60 GiB
Duration : 1 h 37 min
Overall bit rate mode : Variable
Overall bit rate : 8 209 kb/s

NXT Free

Video
ID : 1
Format : AVC
Format/Info : Advanced Video
Duration : 1 h 37 min
Bit rate : 8 000 kb/s
Width : 1 920 pixels
Height : 1 080 pixels
Display aspect ratio : 16:9
Frame rate mode : Constant
Frame rate : 29.970 (30000/1001) FPS
Color space : YUV
Chroma subsampling : 4:2:0
Bit depth : 8 bits
Scan type : Progressive
Bits/(Pixel*Frame) : 0.129
Stream size : 5.47 GiB (98%)
Color range : Limited
Color primaries : BT.709
Transfer characteristics : BT.709
Matrix coefficients : BT.709
Codec configuration box : avc

 

NXT Free

Audio
ID : 2
Format : AAC LC
Format/Info : Advanced Audio
Codec ID : mp4a-40-2
Duration : 1 h 37 min
Bit rate mode : Variable
Bit rate : 192 kb/s
Channel(s) : 2 channels
Channel layout : L R
Sampling rate : 48.0 kHz
Frame rate : 46.875 FPS (1024 SPF)
Compression mode : Lossy
Stream size : 134 MiB (2%)
Title : Stereo / Stereo
Language : English
Default : Yes
Alternate group : 1

Complete name : WWE.NXT.2021.08.10.HDTV.x264-NWCHD.mp4
Format : MPEG-4
Format profile : Base Media
Codec ID : isom
File size : 1.08 GiB
Duration : 1 h 37 min
Overall bit rate : 1 578 kb/s

NXT Free

Video
ID : 1
Format : AVC
Format/Info : Advanced Video
Duration : 1 h 37 min
Bit rate : 1 400 kb/s
Width : 704 pixels
Height : 400 pixels
Display aspect ratio : 16:9
Frame rate mode : Variable
Frame rate : 29.970 (30000/1001) FPS
Minimum frame rate : 29.183 FPS
Maximum frame rate : 29.970 FPS
Color space : YUV
Chroma subsampling : 4:2:0
Bit depth : 8 bits
Scan type : Progressive
Bits/(Pixel*Frame) : 0.166
Stream size : 963 MiB (87%)
Color primaries : BT.709
Transfer characteristics : BT.709
Matrix coefficients : BT.709
Codec configuration box : avc

NXT Free

Audio
ID : 2
Format : AAC LC
Format/Info : Advanced Audio
Codec ID : mp4a-40-2
Duration : 1 h 37 min
Bit rate mode : Constant
Bit rate : 192 kb/s
Channel(s) : 2 channels
Channel layout : L R
Sampling rate : 48.0 kHz
Frame rate : 46.875 FPS (1024 SPF)
Compression mode : Lossy
Stream size : 134 MiB (12%)
Title : Stereo
Language : English
Default : Yes
Alternate group : 1

NXT Free

Complete name : WWE.NXT.2021.08.10.720p.HDTV.x264-NWCHD.mp4
Format : MPEG-4
Format profile : Base Media
Codec ID : isom
File size : 3.17 GiB
Duration : 1 h 37 min
Overall bit rate : 4 642 kb/s

Video
ID : 1
Format : AVC
Format/Info : Advanced Video
Duration : 1 h 37 min
Bit rate : 4 500 kb/s
Width : 1 280 pixels
Height : 720 pixels
Display aspect ratio : 16:9
Frame rate mode : Variable
Frame rate : 29.970 (30000/1001) FPS
Minimum frame rate : 29.183 FPS
Maximum frame rate : 29.970 FPS
Color space : YUV
Chroma subsampling : 4:2:0
Bit depth : 8 bits
Scan type : Progressive
Bits/(Pixel*Frame) : 0.163
Stream size : 3.03 GiB (96%)
Color primaries : BT.709
Transfer characteristics : BT.709
Matrix coefficients : BT.709
Codec configuration box : avc

NXT Free

Audio
ID : 2
Format : AAC LC
Format/Info : Advanced Audio
Codec ID : mp4a-40-2
Duration : 1 h 37 min
Bit rate mode : Constant
Bit rate : 192 kb/s
Channel(s) : 2 channels
Channel layout : L R
Sampling rate : 48.0 kHz
Frame rate : 46.875 FPS
Compression mode : Lossy
Stream size : 134 MiB (4%)
Title : Stereo
Language : English
Default : Yes
Alternate group : 1

Complete name : WWE.NXT.2021.08.10.1080p.HDTV.x264-NWCHD.mp4
Format : MPEG-4
Format profile : Base Media / Version 2
Codec ID : mp42
File size : 5.60 GiB
Duration : 1 h 37 min
Overall bit rate mode : Variable
Overall bit rate : 8 209 kb/s

NXT Free

Video
ID : 1
Format : AVC
Format/Info : Advanced Video
Duration : 1 h 37 min
Bit rate : 8 000 kb/s
Width : 1 920 pixels
Height : 1 080 pixels
Display aspect ratio : 16:9
Frame rate mode : Constant
Frame rate : 29.970 (30000/1001) FPS
Color space : YUV
Chroma subsampling : 4:2:0
Bit depth : 8 bits
Scan type : Progressive
Bits/(Pixel*Frame) : 0.129
Stream size : 5.47 GiB (98%)
Color range : Limited
Color primaries : BT.709
Transfer characteristics : BT.709
Matrix coefficients : BT.709
Codec configuration box : avc

 

NXT Free

Audio
ID : 2
Format : AAC LC
Format/Info : Advanced Audio
Codec ID : mp4a-40-2
Duration : 1 h 37 min
Bit rate mode : Variable
Bit rate : 192 kb/s
Channel(s) : 2 channels
Channel layout : L R
Sampling rate : 48.0 kHz
Frame rate : 46.875 FPS (1024 SPF)
Compression mode : Lossy
Stream size : 134 MiB (2%)
Title : Stereo / Stereo
Language : English
Default : Yes
Alternate group : 1

Complete name : WWE.NXT.2021.08.10.HDTV.x264-NWCHD.mp4
Format : MPEG-4
Format profile : Base Media
Codec ID : isom
File size : 1.08 GiB
Duration : 1 h 37 min
Overall bit rate : 1 578 kb/s

NXT Free

Video
ID : 1
Format : AVC
Format/Info : Advanced Video
Duration : 1 h 37 min
Bit rate : 1 400 kb/s
Width : 704 pixels
Height : 400 pixels
Display aspect ratio : 16:9
Frame rate mode : Variable
Frame rate : 29.970 (30000/1001) FPS
Minimum frame rate : 29.183 FPS
Maximum frame rate : 29.970 FPS
Color space : YUV
Chroma subsampling : 4:2:0
Bit depth : 8 bits
Scan type : Progressive
Bits/(Pixel*Frame) : 0.166
Stream size : 963 MiB (87%)
Color primaries : BT.709
Transfer characteristics : BT.709
Matrix coefficients : BT.709
Codec configuration box : avc

NXT Free

Audio
ID : 2
Format : AAC LC
Format/Info : Advanced Audio
Codec ID : mp4a-40-2
Duration : 1 h 37 min
Bit rate mode : Constant
Bit rate : 192 kb/s
Channel(s) : 2 channels
Channel layout : L R
Sampling rate : 48.0 kHz
Frame rate : 46.875 FPS (1024 SPF)
Compression mode : Lossy
Stream size : 134 MiB (12%)
Title : Stereo
Language : English
Default : Yes
Alternate group : 1

NXT Free

Complete name : WWE.NXT.2021.08.10.720p.HDTV.x264-NWCHD.mp4
Format : MPEG-4
Format profile : Base Media
Codec ID : isom
File size : 3.17 GiB
Duration : 1 h 37 min
Overall bit rate : 4 642 kb/s

Video
ID : 1
Format : AVC
Format/Info : Advanced Video
Duration : 1 h 37 min
Bit rate : 4 500 kb/s
Width : 1 280 pixels
Height : 720 pixels
Display aspect ratio : 16:9
Frame rate mode : Variable
Frame rate : 29.970 (30000/1001) FPS
Minimum frame rate : 29.183 FPS
Maximum frame rate : 29.970 FPS
Color space : YUV
Chroma subsampling : 4:2:0
Bit depth : 8 bits
Scan type : Progressive
Bits/(Pixel*Frame) : 0.163
Stream size : 3.03 GiB (96%)
Color primaries : BT.709
Transfer characteristics : BT.709
Matrix coefficients : BT.709
Codec configuration box : avc

NXT Free

Audio
ID : 2
Format : AAC LC
Format/Info : Advanced Audio
Codec ID : mp4a-40-2
Duration : 1 h 37 min
Bit rate mode : Constant
Bit rate : 192 kb/s
Channel(s) : 2 channels
Channel layout : L R
Sampling rate : 48.0 kHz
Frame rate : 46.875 FPS
Compression mode : Lossy
Stream size : 134 MiB (4%)
Title : Stereo
Language : English
Default : Yes
Alternate group : 1

Complete name : WWE.NXT.2021.08.10.1080p.HDTV.x264-NWCHD.mp4
Format : MPEG-4
Format profile : Base Media / Version 2
Codec ID : mp42
File size : 5.60 GiB
Duration : 1 h 37 min
Overall bit rate mode : Variable
Overall bit rate : 8 209 kb/s

NXT Free

Video
ID : 1
Format : AVC
Format/Info : Advanced Video
Duration : 1 h 37 min
Bit rate : 8 000 kb/s
Width : 1 920 pixels
Height : 1 080 pixels
Display aspect ratio : 16:9
Frame rate mode : Constant
Frame rate : 29.970 (30000/1001) FPS
Color space : YUV
Chroma subsampling : 4:2:0
Bit depth : 8 bits
Scan type : Progressive
Bits/(Pixel*Frame) : 0.129
Stream size : 5.47 GiB (98%)
Color range : Limited
Color primaries : BT.709
Transfer characteristics : BT.709
Matrix coefficients : BT.709
Codec configuration box : avc

 

NXT Free

Audio
ID : 2
Format : AAC LC
Format/Info : Advanced Audio
Codec ID : mp4a-40-2
Duration : 1 h 37 min
Bit rate mode : Variable
Bit rate : 192 kb/s
Channel(s) : 2 channels
Channel layout : L R
Sampling rate : 48.0 kHz
Frame rate : 46.875 FPS (1024 SPF)
Compression mode : Lossy
Stream size : 134 MiB (2%)
Title : Stereo / Stereo
Language : English
Default : Yes
Alternate group : 1

Complete name : WWE.NXT.2021.08.10.HDTV.x264-NWCHD.mp4
Format : MPEG-4
Format profile : Base Media
Codec ID : isom
File size : 1.08 GiB
Duration : 1 h 37 min
Overall bit rate : 1 578 kb/s

NXT Free

Video
ID : 1
Format : AVC
Format/Info : Advanced Video
Duration : 1 h 37 min
Bit rate : 1 400 kb/s
Width : 704 pixels
Height : 400 pixels
Display aspect ratio : 16:9
Frame rate mode : Variable
Frame rate : 29.970 (30000/1001) FPS
Minimum frame rate : 29.183 FPS
Maximum frame rate : 29.970 FPS
Color space : YUV
Chroma subsampling : 4:2:0
Bit depth : 8 bits
Scan type : Progressive
Bits/(Pixel*Frame) : 0.166
Stream size : 963 MiB (87%)
Color primaries : BT.709
Transfer characteristics : BT.709
Matrix coefficients : BT.709
Codec configuration box : avc

NXT Free

Audio
ID : 2
Format : AAC LC
Format/Info : Advanced Audio
Codec ID : mp4a-40-2
Duration : 1 h 37 min
Bit rate mode : Constant
Bit rate : 192 kb/s
Channel(s) : 2 channels
Channel layout : L R
Sampling rate : 48.0 kHz
Frame rate : 46.875 FPS (1024 SPF)
Compression mode : Lossy
Stream size : 134 MiB (12%)
Title : Stereo
Language : English
Default : Yes
Alternate group : 1

NXT Free

Complete name : WWE.NXT.2021.08.10.720p.HDTV.x264-NWCHD.mp4
Format : MPEG-4
Format profile : Base Media
Codec ID : isom
File size : 3.17 GiB
Duration : 1 h 37 min
Overall bit rate : 4 642 kb/s

Video
ID : 1
Format : AVC
Format/Info : Advanced Video
Duration : 1 h 37 min
Bit rate : 4 500 kb/s
Width : 1 280 pixels
Height : 720 pixels
Display aspect ratio : 16:9
Frame rate mode : Variable
Frame rate : 29.970 (30000/1001) FPS
Minimum frame rate : 29.183 FPS
Maximum frame rate : 29.970 FPS
Color space : YUV
Chroma subsampling : 4:2:0
Bit depth : 8 bits
Scan type : Progressive
Bits/(Pixel*Frame) : 0.163
Stream size : 3.03 GiB (96%)
Color primaries : BT.709
Transfer characteristics : BT.709
Matrix coefficients : BT.709
Codec configuration box : avc

NXT Free

Audio
ID : 2
Format : AAC LC
Format/Info : Advanced Audio
Codec ID : mp4a-40-2
Duration : 1 h 37 min
Bit rate mode : Constant
Bit rate : 192 kb/s
Channel(s) : 2 channels
Channel layout : L R
Sampling rate : 48.0 kHz
Frame rate : 46.875 FPS
Compression mode : Lossy
Stream size : 134 MiB (4%)
Title : Stereo
Language : English
Default : Yes
Alternate group : 1

Complete name : WWE.NXT.2021.08.10.1080p.HDTV.x264-NWCHD.mp4
Format : MPEG-4
Format profile : Base Media / Version 2
Codec ID : mp42
File size : 5.60 GiB
Duration : 1 h 37 min
Overall bit rate mode : Variable
Overall bit rate : 8 209 kb/s

NXT Free

Video
ID : 1
Format : AVC
Format/Info : Advanced Video
Duration : 1 h 37 min
Bit rate : 8 000 kb/s
Width : 1 920 pixels
Height : 1 080 pixels
Display aspect ratio : 16:9
Frame rate mode : Constant
Frame rate : 29.970 (30000/1001) FPS
Color space : YUV
Chroma subsampling : 4:2:0
Bit depth : 8 bits
Scan type : Progressive
Bits/(Pixel*Frame) : 0.129
Stream size : 5.47 GiB (98%)
Color range : Limited
Color primaries : BT.709
Transfer characteristics : BT.709
Matrix coefficients : BT.709
Codec configuration box : avc

 

NXT Free

Audio
ID : 2
Format : AAC LC
Format/Info : Advanced Audio
Codec ID : mp4a-40-2
Duration : 1 h 37 min
Bit rate mode : Variable
Bit rate : 192 kb/s
Channel(s) : 2 channels
Channel layout : L R
Sampling rate : 48.0 kHz
Frame rate : 46.875 FPS (1024 SPF)
Compression mode : Lossy
Stream size : 134 MiB (2%)
Title : Stereo / Stereo
Language : English
Default : Yes
Alternate group : 1

Complete name : WWE.NXT.2021.08.10.HDTV.x264-NWCHD.mp4
Format : MPEG-4
Format profile : Base Media
Codec ID : isom
File size : 1.08 GiB
Duration : 1 h 37 min
Overall bit rate : 1 578 kb/s

NXT Free

Video
ID : 1
Format : AVC
Format/Info : Advanced Video
Duration : 1 h 37 min
Bit rate : 1 400 kb/s
Width : 704 pixels
Height : 400 pixels
Display aspect ratio : 16:9
Frame rate mode : Variable
Frame rate : 29.970 (30000/1001) FPS
Minimum frame rate : 29.183 FPS
Maximum frame rate : 29.970 FPS
Color space : YUV
Chroma subsampling : 4:2:0
Bit depth : 8 bits
Scan type : Progressive
Bits/(Pixel*Frame) : 0.166
Stream size : 963 MiB (87%)
Color primaries : BT.709
Transfer characteristics : BT.709
Matrix coefficients : BT.709
Codec configuration box : avc

NXT Free

Audio
ID : 2
Format : AAC LC
Format/Info : Advanced Audio
Codec ID : mp4a-40-2
Duration : 1 h 37 min
Bit rate mode : Constant
Bit rate : 192 kb/s
Channel(s) : 2 channels
Channel layout : L R
Sampling rate : 48.0 kHz
Frame rate : 46.875 FPS (1024 SPF)
Compression mode : Lossy
Stream size : 134 MiB (12%)
Title : Stereo
Language : English
Default : Yes
Alternate group : 1

NXT Free

Complete name : WWE.NXT.2021.08.10.720p.HDTV.x264-NWCHD.mp4
Format : MPEG-4
Format profile : Base Media
Codec ID : isom
File size : 3.17 GiB
Duration : 1 h 37 min
Overall bit rate : 4 642 kb/s

Video
ID : 1
Format : AVC
Format/Info : Advanced Video
Duration : 1 h 37 min
Bit rate : 4 500 kb/s
Width : 1 280 pixels
Height : 720 pixels
Display aspect ratio : 16:9
Frame rate mode : Variable
Frame rate : 29.970 (30000/1001) FPS
Minimum frame rate : 29.183 FPS
Maximum frame rate : 29.970 FPS
Color space : YUV
Chroma subsampling : 4:2:0
Bit depth : 8 bits
Scan type : Progressive
Bits/(Pixel*Frame) : 0.163
Stream size : 3.03 GiB (96%)
Color primaries : BT.709
Transfer characteristics : BT.709
Matrix coefficients : BT.709
Codec configuration box : avc

NXT Free

Audio
ID : 2
Format : AAC LC
Format/Info : Advanced Audio
Codec ID : mp4a-40-2
Duration : 1 h 37 min
Bit rate mode : Constant
Bit rate : 192 kb/s
Channel(s) : 2 channels
Channel layout : L R
Sampling rate : 48.0 kHz
Frame rate : 46.875 FPS
Compression mode : Lossy
Stream size : 134 MiB (4%)
Title : Stereo
Language : English
Default : Yes
Alternate group : 1

Complete name : WWE.NXT.2021.08.10.1080p.HDTV.x264-NWCHD.mp4
Format : MPEG-4
Format profile : Base Media / Version 2
Codec ID : mp42
File size : 5.60 GiB
Duration : 1 h 37 min
Overall bit rate mode : Variable
Overall bit rate : 8 209 kb/s

NXT Free

Video
ID : 1
Format : AVC
Format/Info : Advanced Video
Duration : 1 h 37 min
Bit rate : 8 000 kb/s
Width : 1 920 pixels
Height : 1 080 pixels
Display aspect ratio : 16:9
Frame rate mode : Constant
Frame rate : 29.970 (30000/1001) FPS
Color space : YUV
Chroma subsampling : 4:2:0
Bit depth : 8 bits
Scan type : Progressive
Bits/(Pixel*Frame) : 0.129
Stream size : 5.47 GiB (98%)
Color range : Limited
Color primaries : BT.709
Transfer characteristics : BT.709
Matrix coefficients : BT.709
Codec configuration box : avc

 

NXT Free

Audio
ID : 2
Format : AAC LC
Format/Info : Advanced Audio
Codec ID : mp4a-40-2
Duration : 1 h 37 min
Bit rate mode : Variable
Bit rate : 192 kb/s
Channel(s) : 2 channels
Channel layout : L R
Sampling rate : 48.0 kHz
Frame rate : 46.875 FPS (1024 SPF)
Compression mode : Lossy
Stream size : 134 MiB (2%)
Title : Stereo / Stereo
Language : English
Default : Yes
Alternate group : 1

Complete name : WWE.NXT.2021.08.10.HDTV.x264-NWCHD.mp4
Format : MPEG-4
Format profile : Base Media
Codec ID : isom
File size : 1.08 GiB
Duration : 1 h 37 min
Overall bit rate : 1 578 kb/s

NXT Free

Video
ID : 1
Format : AVC
Format/Info : Advanced Video
Duration : 1 h 37 min
Bit rate : 1 400 kb/s
Width : 704 pixels
Height : 400 pixels
Display aspect ratio : 16:9
Frame rate mode : Variable
Frame rate : 29.970 (30000/1001) FPS
Minimum frame rate : 29.183 FPS
Maximum frame rate : 29.970 FPS
Color space : YUV
Chroma subsampling : 4:2:0
Bit depth : 8 bits
Scan type : Progressive
Bits/(Pixel*Frame) : 0.166
Stream size : 963 MiB (87%)
Color primaries : BT.709
Transfer characteristics : BT.709
Matrix coefficients : BT.709
Codec configuration box : avc

NXT Free

Audio
ID : 2
Format : AAC LC
Format/Info : Advanced Audio
Codec ID : mp4a-40-2
Duration : 1 h 37 min
Bit rate mode : Constant
Bit rate : 192 kb/s
Channel(s) : 2 channels
Channel layout : L R
Sampling rate : 48.0 kHz
Frame rate : 46.875 FPS (1024 SPF)
Compression mode : Lossy
Stream size : 134 MiB (12%)
Title : Stereo
Language : English
Default : Yes
Alternate group : 1

NXT Free

Complete name : WWE.NXT.2021.08.10.720p.HDTV.x264-NWCHD.mp4
Format : MPEG-4
Format profile : Base Media
Codec ID : isom
File size : 3.17 GiB
Duration : 1 h 37 min
Overall bit rate : 4 642 kb/s

Video
ID : 1
Format : AVC
Format/Info : Advanced Video
Duration : 1 h 37 min
Bit rate : 4 500 kb/s
Width : 1 280 pixels
Height : 720 pixels
Display aspect ratio : 16:9
Frame rate mode : Variable
Frame rate : 29.970 (30000/1001) FPS
Minimum frame rate : 29.183 FPS
Maximum frame rate : 29.970 FPS
Color space : YUV
Chroma subsampling : 4:2:0
Bit depth : 8 bits
Scan type : Progressive
Bits/(Pixel*Frame) : 0.163
Stream size : 3.03 GiB (96%)
Color primaries : BT.709
Transfer characteristics : BT.709
Matrix coefficients : BT.709
Codec configuration box : avc

NXT Free

Audio
ID : 2
Format : AAC LC
Format/Info : Advanced Audio
Codec ID : mp4a-40-2
Duration : 1 h 37 min
Bit rate mode : Constant
Bit rate : 192 kb/s
Channel(s) : 2 channels
Channel layout : L R
Sampling rate : 48.0 kHz
Frame rate : 46.875 FPS
Compression mode : Lossy
Stream size : 134 MiB (4%)
Title : Stereo
Language : English
Default : Yes
Alternate group : 1

Complete name : WWE.NXT.2021.08.10.1080p.HDTV.x264-NWCHD.mp4
Format : MPEG-4
Format profile : Base Media / Version 2
Codec ID : mp42
File size : 5.60 GiB
Duration : 1 h 37 min
Overall bit rate mode : Variable
Overall bit rate : 8 209 kb/s

NXT Free

Video
ID : 1
Format : AVC
Format/Info : Advanced Video
Duration : 1 h 37 min
Bit rate : 8 000 kb/s
Width : 1 920 pixels
Height : 1 080 pixels
Display aspect ratio : 16:9
Frame rate mode : Constant
Frame rate : 29.970 (30000/1001) FPS
Color space : YUV
Chroma subsampling : 4:2:0
Bit depth : 8 bits
Scan type : Progressive
Bits/(Pixel*Frame) : 0.129
Stream size : 5.47 GiB (98%)
Color range : Limited
Color primaries : BT.709
Transfer characteristics : BT.709
Matrix coefficients : BT.709
Codec configuration box : avc

 

NXT Free

Audio
ID : 2
Format : AAC LC
Format/Info : Advanced Audio
Codec ID : mp4a-40-2
Duration : 1 h 37 min
Bit rate mode : Variable
Bit rate : 192 kb/s
Channel(s) : 2 channels
Channel layout : L R
Sampling rate : 48.0 kHz
Frame rate : 46.875 FPS (1024 SPF)
Compression mode : Lossy
Stream size : 134 MiB (2%)
Title : Stereo / Stereo
Language : English
Default : Yes
Alternate group : 1

Complete name : WWE.NXT.2021.08.10.HDTV.x264-NWCHD.mp4
Format : MPEG-4
Format profile : Base Media
Codec ID : isom
File size : 1.08 GiB
Duration : 1 h 37 min
Overall bit rate : 1 578 kb/s

NXT Free

Video
ID : 1
Format : AVC
Format/Info : Advanced Video
Duration : 1 h 37 min
Bit rate : 1 400 kb/s
Width : 704 pixels
Height : 400 pixels
Display aspect ratio : 16:9
Frame rate mode : Variable
Frame rate : 29.970 (30000/1001) FPS
Minimum frame rate : 29.183 FPS
Maximum frame rate : 29.970 FPS
Color space : YUV
Chroma subsampling : 4:2:0
Bit depth : 8 bits
Scan type : Progressive
Bits/(Pixel*Frame) : 0.166
Stream size : 963 MiB (87%)
Color primaries : BT.709
Transfer characteristics : BT.709
Matrix coefficients : BT.709
Codec configuration box : avc

NXT Free

Audio
ID : 2
Format : AAC LC
Format/Info : Advanced Audio
Codec ID : mp4a-40-2
Duration : 1 h 37 min
Bit rate mode : Constant
Bit rate : 192 kb/s
Channel(s) : 2 channels
Channel layout : L R
Sampling rate : 48.0 kHz
Frame rate : 46.875 FPS (1024 SPF)
Compression mode : Lossy
Stream size : 134 MiB (12%)
Title : Stereo
Language : English
Default : Yes
Alternate group : 1

NXT Free

Complete name : WWE.NXT.2021.08.10.720p.HDTV.x264-NWCHD.mp4
Format : MPEG-4
Format profile : Base Media
Codec ID : isom
File size : 3.17 GiB
Duration : 1 h 37 min
Overall bit rate : 4 642 kb/s

Video
ID : 1
Format : AVC
Format/Info : Advanced Video
Duration : 1 h 37 min
Bit rate : 4 500 kb/s
Width : 1 280 pixels
Height : 720 pixels
Display aspect ratio : 16:9
Frame rate mode : Variable
Frame rate : 29.970 (30000/1001) FPS
Minimum frame rate : 29.183 FPS
Maximum frame rate : 29.970 FPS
Color space : YUV
Chroma subsampling : 4:2:0
Bit depth : 8 bits
Scan type : Progressive
Bits/(Pixel*Frame) : 0.163
Stream size : 3.03 GiB (96%)
Color primaries : BT.709
Transfer characteristics : BT.709
Matrix coefficients : BT.709
Codec configuration box : avc

NXT Free

Audio
ID : 2
Format : AAC LC
Format/Info : Advanced Audio
Codec ID : mp4a-40-2
Duration : 1 h 37 min
Bit rate mode : Constant
Bit rate : 192 kb/s
Channel(s) : 2 channels
Channel layout : L R
Sampling rate : 48.0 kHz
Frame rate : 46.875 FPS
Compression mode : Lossy
Stream size : 134 MiB (4%)
Title : Stereo
Language : English
Default : Yes
Alternate group : 1

Complete name : WWE.NXT.2021.08.10.1080p.HDTV.x264-NWCHD.mp4
Format : MPEG-4
Format profile : Base Media / Version 2
Codec ID : mp42
File size : 5.60 GiB
Duration : 1 h 37 min
Overall bit rate mode : Variable
Overall bit rate : 8 209 kb/s

NXT Free

Video
ID : 1
Format : AVC
Format/Info : Advanced Video
Duration : 1 h 37 min
Bit rate : 8 000 kb/s
Width : 1 920 pixels
Height : 1 080 pixels
Display aspect ratio : 16:9
Frame rate mode : Constant
Frame rate : 29.970 (30000/1001) FPS
Color space : YUV
Chroma subsampling : 4:2:0
Bit depth : 8 bits
Scan type : Progressive
Bits/(Pixel*Frame) : 0.129
Stream size : 5.47 GiB (98%)
Color range : Limited
Color primaries : BT.709
Transfer characteristics : BT.709
Matrix coefficients : BT.709
Codec configuration box : avc

 

NXT Free

Audio
ID : 2
Format : AAC LC
Format/Info : Advanced Audio
Codec ID : mp4a-40-2
Duration : 1 h 37 min
Bit rate mode : Variable
Bit rate : 192 kb/s
Channel(s) : 2 channels
Channel layout : L R
Sampling rate : 48.0 kHz
Frame rate : 46.875 FPS (1024 SPF)
Compression mode : Lossy
Stream size : 134 MiB (2%)
Title : Stereo / Stereo
Language : English
Default : Yes
Alternate group : 1

Complete name : WWE.NXT.2021.08.10.HDTV.x264-NWCHD.mp4
Format : MPEG-4
Format profile : Base Media
Codec ID : isom
File size : 1.08 GiB
Duration : 1 h 37 min
Overall bit rate : 1 578 kb/s

NXT Free

Video
ID : 1
Format : AVC
Format/Info : Advanced Video
Duration : 1 h 37 min
Bit rate : 1 400 kb/s
Width : 704 pixels
Height : 400 pixels
Display aspect ratio : 16:9
Frame rate mode : Variable
Frame rate : 29.970 (30000/1001) FPS
Minimum frame rate : 29.183 FPS
Maximum frame rate : 29.970 FPS
Color space : YUV
Chroma subsampling : 4:2:0
Bit depth : 8 bits
Scan type : Progressive
Bits/(Pixel*Frame) : 0.166
Stream size : 963 MiB (87%)
Color primaries : BT.709
Transfer characteristics : BT.709
Matrix coefficients : BT.709
Codec configuration box : avc

NXT Free

Audio
ID : 2
Format : AAC LC
Format/Info : Advanced Audio
Codec ID : mp4a-40-2
Duration : 1 h 37 min
Bit rate mode : Constant
Bit rate : 192 kb/s
Channel(s) : 2 channels
Channel layout : L R
Sampling rate : 48.0 kHz
Frame rate : 46.875 FPS (1024 SPF)
Compression mode : Lossy
Stream size : 134 MiB (12%)
Title : Stereo
Language : English
Default : Yes
Alternate group : 1

NXT Free

 

[collapse]

 

 

https://dx-tv.com/

Leave a Reply

Your email address will not be published. Required fields are marked *

This site uses Akismet to reduce spam. Learn how your comment data is processed.