NXT 2020 10 07 720p WWE Full Show Online

WWE NXT Online 2020 10 07 720p HDTV Star DX-TV

 

NXT 2020 10 07

 

 NXT 2020 10 07
 


 

 

NXT 2020 10 07 720p WWE Full Show Online

 

 

Complete name : WWE.NXT.2020.10.07.720p.HDTV.x264-Star.mkv
Format : Matroska
Format version : Version 4
File size : 3.13 GiB
Duration : 1 h 26 min
Overall bit rate : 5 204 kb/s
Writing library : Lavf58.29.100

NXT 2020 10 07

Video
ID : 1
Format : AVC
Duration : 1 h 26 min
Bit rate : 5 000 kb/s
Width : 1 280 pixels
Height : 720 pixels
Display aspect ratio : 16:9
Frame rate mode : Constant
  rate : 29.970 (30000/1001) FPS
Color space : YUV
Chroma subsampling : 4:2:0
Bit depth : 8 bits
Scan type : Progressive
Bits/(Pixel*Frame) : 0.181
Stream size : 2.96 GiB (94%)
Forced : No
Color range : Limited
Color primaries : BT.709
Transfer characteristics : BT.709
Matrix coefficients : BT.709

NXT 2020 10 07

Audio
ID : 2
Format : AC-3
Format/Info : Audio
Commercial name : Dolby
Codec ID : A_AC3
Duration : 1 h 26 min
Bit rate mode : Constant
Bit rate : 192 kb/s
Channel(s) : 2 channels
Channel layout : L R
Sampling rate : 48.0 kHz
Frame rate : 31.250 FPS
Compression mode : Lossy
Delay relative to video : -5 ms
Stream size : 118 MiB (4%)
Title : Stereo
Service kind : Complete Main
Default : Yes
Forced : No

 2020 10 07

Killian Dain & Drake Maverick def. Ever-Rise

Killian Dain & Drake Maverick are anything but a well-oiled machine, though they still found a way to claim victory over Ever-Rise. Drake spent much of the bout being beaten down by the much more experienced duo of Chase Parker & Matt Martel until Dain powerbombed his own partner onto Parker, leaving Maverick in position for the pinfall. 

Dain still wasn’t quite ready to celebrate with Maverick afterward, instead leveling him with yet another post-match haymaker. But The Beast of Belfast did show some sympathy this time, slinging Drake over his shoulder before heading to the backstage area.

 

 

NXT 2020 10 07 720p WWE Full Show Online

 

 

Watch online

 

 

 

Server 1

 

 

 

 

NXT 2020 10 07

 

 

 

 

Server-2

 

 

 

NXT 2020 10 07

 

 

 

 

Server-3

 

 

 

watch now

 

 

 

 

Uploaded By Site DX-TV.com

 

 

 

 

Download Free Links with normal and high Speed [ more 14 hosts ]  

 

 

 

 

http://shrt10.com/xm6exjP2
http://shrt10.com/GqkoMR
http://shrt10.com/xoXZwgAfJ
http://shrt10.com/1UsEqE
http://shrt10.com/I7r6l0wE
http://shrt10.com/pYhxfKpw
http://shrt10.com/QW9MnxAPJ
http://shrt10.com/oy84M
http://shrt10.com/LaX99f
http://shrt10.com/tx9OToJl

 

 

 

Download Links with premium High Speed   

 

 

 

nitroflare.com

 

 

 

rapidgator.net

 

 

 

uploaded.net

 

 

 

uploadgig.com

 

 

 

 

 

dx-tv.com

 

urlfree.net

Leave a Reply

Your email address will not be published. Required fields are marked *

This site uses Akismet to reduce spam. Learn how your comment data is processed.