NWA Powerrr Season 6 Episode 3 Free Replay

NWA Powerrr Season 6 Episode 3 Full Show Online Free Replay DX-TV

NWA Powerrr

 NWA Powerrr

 

 

 

Download Links with premium High Speed
 


Dopapk

 

 

Show Links

 

 

https://shrt10.com/EN7tFcVfS

 

 

 

 

 

Nitroflare

 

 

Show Links

 

 

Rapidgator

 

 

Show Links

 

 

https://shrt10.com/iBg6WJGo

 

 

 

 

 

Uploaded
 

 

Show Links

 

 

 

 

 

Watch online

 

Server 1

 

 

 

 

NWA Powerrr

 

 

 

 

Server-2

 

 

 

 

watch now

 

 

 

|Server-3

 

 

 

 

watch now

 

 

Uploaded By Site DX-TV.com

 

 

Open Info Show

 

 

Complete name : NWA Powerrr Season 6 Episode 3.mp4
Format : MPEG-4
Format profile : Base Media
Codec ID : isom
File size : 1.55 GiB
Duration : 48 min 49 s
Overall bit rate : 4 558 kb/s

Video
ID : 1
Format : AVC
Duration : 48 min 49 s
Source duration : 48 min 49 s
Bit rate : 4 272 kb/s
Nominal bit rate : 4 800 kb/s
Maximum bit rate : 4 453 kb/s
Width : 1 920 pixels
Height : 1 080 pixels NWA Powerrr
Display aspect ratio : 16:9
Frame rate mode : Constant
Frame rate : 29.970 (30000/1001) FPS
Color space : YUV
Chroma subsampling : 4:2:0
Bit depth : 8 bits
Scan type : Progressive
Bits/(Pixel*Frame) : 0.069
Stream size : 1.46 GiB (94%)
Writing library : x264 core 152

 

NWA Powerrr

 

Audio
ID : 2
Format : AAC LC
Format/Info : Advanced Audio
Codec ID : mp4a-40-2
Duration : 48 min 49 s
Bit rate mode : Constant
Bit rate : 96.0 kb/s
Channel(s) : 2 channels
Channel layout : L R
Sampling rate : 48.0 kHz
Frame rate : 46.875 FPS (1024 SPF)
Compression mode : Lossy
Stream size : 33.6 MiB (2%)
Default : Yes
Alternate group : 1

 

 

https://dx-tv.com/

Audio
ID : 2
Format : AAC LC
Format/Info : Advanced Audio
Codec ID : mp4a-40-2
Duration : 48 min 49 s
Bit rate mode : Constant
Bit rate : 96.0 kb/s
Channel(s) : 2 channels
Channel layout : L R
Sampling rate : 48.0 kHz
Frame rate : 46.875 FPS (1024 SPF)
Compression mode : Lossy
Stream size : 33.6 MiB (2%)
Default : Yes
Alternate group : 1

 

Audio
ID : 2
Format : AAC LC
Format/Info : Advanced Audio
Codec ID : mp4a-40-2
Duration : 48 min 49 s
Bit rate mode : Constant
Bit rate : 96.0 kb/s NWA Powerrr
Channel(s) : 2 channels
Channel layout : L R
Sampling rate : 48.0 kHz
Frame rate : 46.875 FPS (1024 SPF)
Compression mode : Lossy
Stream size : 33.6 MiB (2%)
Default : Yes
Alternate group : 1

NWA Powerrr

Audio
ID : 2
Format : AAC LC
Format/Info : Advanced Audio
Codec ID : mp4a-40-2
Duration : 48 min 49 s
Bit rate mode : Constant
Bit rate : 96.0 kb/s
Channel(s) : 2 channels
Channel layout : L R
Sampling rate : 48.0 kHz
Frame rate : 46.875 FPS (1024 SPF)
Compression mode : Lossy
Stream size : 33.6 MiB (2%)
Default : Yes
Alternate group : 1

 

Audio
ID : 2
Format : AAC LC
Format/Info : Advanced Audio
Codec ID : mp4a-40-2
Duration : 48 min 49 s
Bit rate mode : Constant
Bit rate : 96.0 kb/s NWA Powerrr
Channel(s) : 2 channels
Channel layout : L R
Sampling rate : 48.0 kHz
Frame rate : 46.875 FPS (1024 SPF)
Compression mode : Lossy
Stream size : 33.6 MiB (2%)
Default : Yes
Alternate group : 1

 

 

 

 

Leave a Reply

Your email address will not be published. Required fields are marked *

This site uses Akismet to reduce spam. Learn how your comment data is processed.