NWA Powerrr Episode 36 1080p Online Free Replay

NWA Powerrr Episode 36 1080p Online Free Replay DX-TV

NWA Powerrr Episode 36

 NWA Powerrr Episode 36

 

 

 

Download Links with premium High Speed


 

Dopapk

 

 

Show Links

 

http://shrt10.com/GXbvLusd

 

[collapse]

 

 

Nitroflare

 

 

Show Links

 

http://shrt10.com/O6Qd0

 

[collapse]

 

 

Rapidgator

 

 

Show Links

 

http://shrt10.com/Itpo5

 

[collapse]

 

 

Uploaded

 

 

Show Links

 

http://shrt10.com/k7z9GLN

 

[collapse]

 

 

Watch online

 

Server 1

 

 

 

 

NWA Powerrr Episode 36

 

 

 

 

Server-2

 

 

 

 

watch now

 

 

 

|Server-3

 

 

 

 

watch now

 

 

Uploaded By Site DX-TV.com

 

 

Show Info This Show

 

NWA Powerrr Episode 36

Complete name : NWA Powerrr Episode 36.mp4
Format : MPEG-4
Format profile : Base Media
Codec ID : isom
File size : 1.33 GiB
Duration : 41 min 30 s
Overall bit rate : 4 590 kb/s

Video
ID : 1
Format : AVC
Format/Info : Advanced Video
Duration : 41 min 30 s
Source duration : 41 min 30 s
Bit rate : 4 481 kb/s
Width : 1 920 pixels
Height : 1 080 pixels
Display aspect ratio : 16:9
Frame rate mode : Variable
Frame rate : 29.970 (29970/1000) FPS
Minimum frame rate : 11.628 FPS
Maximum frame rate : 30.303 FPS
Color space : YUV
Chroma subsampling : 4:2:0
Bit depth : 8 bits
Scan type : Progressive
Bits/(Pixel*Frame) : 0.072
Stream size : 1.30 GiB (98%)
Source stream size : 1.30 GiB (98%)
mdhd_Duration : 2490594
Codec configuration box : avc

NWA Powerrr Episode 36

Audio
ID : 2
Format : AAC LC
Format/Info : Advanced Audio
Codec ID : mp4a-40-2
Duration : 41 min 30 s
Bit rate mode : Constant
Bit rate : 96.0 kb/s
Channel(s) : 2 channels
Channel layout : L R
Sampling rate : 48.0 kHz
Frame rate : 46.875 FPS (1024 SPF)
Compression mode : Lossy
Stream size : 28.6 MiB (2%)
Default : Yes
Alternate group : 1

NWA Powerrr Episode 36

Complete name : NWA Powerrr Episode 36.mp4
Format : MPEG-4
Format profile : Base Media
Codec ID : isom
File size : 1.33 GiB
Duration : 41 min 30 s
Overall bit rate : 4 590 kb/s

Video
ID : 1
Format : AVC
Format/Info : Advanced Video
Duration : 41 min 30 s
Source duration : 41 min 30 s
Bit rate : 4 481 kb/s
Width : 1 920 pixels
Height : 1 080 pixels
Display aspect ratio : 16:9
Frame rate mode : Variable
Frame rate : 29.970 (29970/1000) FPS
Minimum frame rate : 11.628 FPS
Maximum frame rate : 30.303 FPS
Color space : YUV
Chroma subsampling : 4:2:0
Bit depth : 8 bits
Scan type : Progressive
Bits/(Pixel*Frame) : 0.072
Stream size : 1.30 GiB (98%)
Source stream size : 1.30 GiB (98%)
mdhd_Duration : 2490594
Codec configuration box : avc

NWA Powerrr Episode 36

Audio
ID : 2
Format : AAC LC
Format/Info : Advanced Audio
Codec ID : mp4a-40-2
Duration : 41 min 30 s
Bit rate mode : Constant
Bit rate : 96.0 kb/s
Channel(s) : 2 channels
Channel layout : L R
Sampling rate : 48.0 kHz
Frame rate : 46.875 FPS (1024 SPF)
Compression mode : Lossy
Stream size : 28.6 MiB (2%)
Default : Yes
Alternate group : 1

NWA Powerrr Episode 36

Complete name : NWA Powerrr Episode 36.mp4
Format : MPEG-4
Format profile : Base Media
Codec ID : isom
File size : 1.33 GiB
Duration : 41 min 30 s
Overall bit rate : 4 590 kb/s

Video
ID : 1
Format : AVC
Format/Info : Advanced Video
Duration : 41 min 30 s
Source duration : 41 min 30 s
Bit rate : 4 481 kb/s
Width : 1 920 pixels
Height : 1 080 pixels
Display aspect ratio : 16:9
Frame rate mode : Variable
Frame rate : 29.970 (29970/1000) FPS
Minimum frame rate : 11.628 FPS
Maximum frame rate : 30.303 FPS
Color space : YUV
Chroma subsampling : 4:2:0
Bit depth : 8 bits
Scan type : Progressive
Bits/(Pixel*Frame) : 0.072
Stream size : 1.30 GiB (98%)
Source stream size : 1.30 GiB (98%)
mdhd_Duration : 2490594
Codec configuration box : avc

NWA Powerrr Episode 36

Audio
ID : 2
Format : AAC LC
Format/Info : Advanced Audio
Codec ID : mp4a-40-2
Duration : 41 min 30 s
Bit rate mode : Constant
Bit rate : 96.0 kb/s
Channel(s) : 2 channels
Channel layout : L R
Sampling rate : 48.0 kHz
Frame rate : 46.875 FPS (1024 SPF)
Compression mode : Lossy
Stream size : 28.6 MiB (2%)
Default : Yes
Alternate group : 1

NWA Powerrr Episode 36

Complete name : NWA Powerrr Episode 36.mp4
Format : MPEG-4
Format profile : Base Media
Codec ID : isom
File size : 1.33 GiB
Duration : 41 min 30 s
Overall bit rate : 4 590 kb/s

Video
ID : 1
Format : AVC
Format/Info : Advanced Video
Duration : 41 min 30 s
Source duration : 41 min 30 s
Bit rate : 4 481 kb/s
Width : 1 920 pixels
Height : 1 080 pixels
Display aspect ratio : 16:9
Frame rate mode : Variable
Frame rate : 29.970 (29970/1000) FPS
Minimum frame rate : 11.628 FPS
Maximum frame rate : 30.303 FPS
Color space : YUV
Chroma subsampling : 4:2:0
Bit depth : 8 bits
Scan type : Progressive
Bits/(Pixel*Frame) : 0.072
Stream size : 1.30 GiB (98%)
Source stream size : 1.30 GiB (98%)
mdhd_Duration : 2490594
Codec configuration box : avc

NWA Powerrr Episode 36

Audio
ID : 2
Format : AAC LC
Format/Info : Advanced Audio
Codec ID : mp4a-40-2
Duration : 41 min 30 s
Bit rate mode : Constant
Bit rate : 96.0 kb/s
Channel(s) : 2 channels
Channel layout : L R
Sampling rate : 48.0 kHz
Frame rate : 46.875 FPS (1024 SPF)
Compression mode : Lossy
Stream size : 28.6 MiB (2%)
Default : Yes
Alternate group : 1

NWA Powerrr Episode 36

Complete name : NWA Powerrr Episode 36.mp4
Format : MPEG-4
Format profile : Base Media
Codec ID : isom
File size : 1.33 GiB
Duration : 41 min 30 s
Overall bit rate : 4 590 kb/s

Video
ID : 1
Format : AVC
Format/Info : Advanced Video
Duration : 41 min 30 s
Source duration : 41 min 30 s
Bit rate : 4 481 kb/s
Width : 1 920 pixels
Height : 1 080 pixels
Display aspect ratio : 16:9
Frame rate mode : Variable
Frame rate : 29.970 (29970/1000) FPS
Minimum frame rate : 11.628 FPS
Maximum frame rate : 30.303 FPS
Color space : YUV
Chroma subsampling : 4:2:0
Bit depth : 8 bits
Scan type : Progressive
Bits/(Pixel*Frame) : 0.072
Stream size : 1.30 GiB (98%)
Source stream size : 1.30 GiB (98%)
mdhd_Duration : 2490594
Codec configuration box : avc

NWA Powerrr Episode 36

Audio
ID : 2
Format : AAC LC
Format/Info : Advanced Audio
Codec ID : mp4a-40-2
Duration : 41 min 30 s
Bit rate mode : Constant
Bit rate : 96.0 kb/s
Channel(s) : 2 channels
Channel layout : L R
Sampling rate : 48.0 kHz
Frame rate : 46.875 FPS (1024 SPF)
Compression mode : Lossy
Stream size : 28.6 MiB (2%)
Default : Yes
Alternate group : 1

NWA Powerrr Episode 36

Complete name : NWA Powerrr Episode 36.mp4
Format : MPEG-4
Format profile : Base Media
Codec ID : isom
File size : 1.33 GiB
Duration : 41 min 30 s
Overall bit rate : 4 590 kb/s

Video
ID : 1
Format : AVC
Format/Info : Advanced Video
Duration : 41 min 30 s
Source duration : 41 min 30 s
Bit rate : 4 481 kb/s
Width : 1 920 pixels
Height : 1 080 pixels
Display aspect ratio : 16:9
Frame rate mode : Variable
Frame rate : 29.970 (29970/1000) FPS
Minimum frame rate : 11.628 FPS
Maximum frame rate : 30.303 FPS
Color space : YUV
Chroma subsampling : 4:2:0
Bit depth : 8 bits
Scan type : Progressive
Bits/(Pixel*Frame) : 0.072
Stream size : 1.30 GiB (98%)
Source stream size : 1.30 GiB (98%)
mdhd_Duration : 2490594
Codec configuration box : avc

NWA Powerrr Episode 36

Audio
ID : 2
Format : AAC LC
Format/Info : Advanced Audio
Codec ID : mp4a-40-2
Duration : 41 min 30 s
Bit rate mode : Constant
Bit rate : 96.0 kb/s
Channel(s) : 2 channels
Channel layout : L R
Sampling rate : 48.0 kHz
Frame rate : 46.875 FPS (1024 SPF)
Compression mode : Lossy
Stream size : 28.6 MiB (2%)
Default : Yes
Alternate group : 1

NWA Powerrr Episode 36

Complete name : NWA Powerrr Episode 36.mp4
Format : MPEG-4
Format profile : Base Media
Codec ID : isom
File size : 1.33 GiB
Duration : 41 min 30 s
Overall bit rate : 4 590 kb/s

Video
ID : 1
Format : AVC
Format/Info : Advanced Video
Duration : 41 min 30 s
Source duration : 41 min 30 s
Bit rate : 4 481 kb/s
Width : 1 920 pixels
Height : 1 080 pixels
Display aspect ratio : 16:9
Frame rate mode : Variable
Frame rate : 29.970 (29970/1000) FPS
Minimum frame rate : 11.628 FPS
Maximum frame rate : 30.303 FPS
Color space : YUV
Chroma subsampling : 4:2:0
Bit depth : 8 bits
Scan type : Progressive
Bits/(Pixel*Frame) : 0.072
Stream size : 1.30 GiB (98%)
Source stream size : 1.30 GiB (98%)
mdhd_Duration : 2490594
Codec configuration box : avc

NWA Powerrr Episode 36

Audio
ID : 2
Format : AAC LC
Format/Info : Advanced Audio
Codec ID : mp4a-40-2
Duration : 41 min 30 s
Bit rate mode : Constant
Bit rate : 96.0 kb/s
Channel(s) : 2 channels
Channel layout : L R
Sampling rate : 48.0 kHz
Frame rate : 46.875 FPS (1024 SPF)
Compression mode : Lossy
Stream size : 28.6 MiB (2%)
Default : Yes
Alternate group : 1

NWA Powerrr Episode 36

Complete name : NWA Powerrr Episode 36.mp4
Format : MPEG-4
Format profile : Base Media
Codec ID : isom
File size : 1.33 GiB
Duration : 41 min 30 s
Overall bit rate : 4 590 kb/s

Video
ID : 1
Format : AVC
Format/Info : Advanced Video
Duration : 41 min 30 s
Source duration : 41 min 30 s
Bit rate : 4 481 kb/s
Width : 1 920 pixels
Height : 1 080 pixels
Display aspect ratio : 16:9
Frame rate mode : Variable
Frame rate : 29.970 (29970/1000) FPS
Minimum frame rate : 11.628 FPS
Maximum frame rate : 30.303 FPS
Color space : YUV
Chroma subsampling : 4:2:0
Bit depth : 8 bits
Scan type : Progressive
Bits/(Pixel*Frame) : 0.072
Stream size : 1.30 GiB (98%)
Source stream size : 1.30 GiB (98%)
mdhd_Duration : 2490594
Codec configuration box : avc

NWA Powerrr Episode 36

Audio
ID : 2
Format : AAC LC
Format/Info : Advanced Audio
Codec ID : mp4a-40-2
Duration : 41 min 30 s
Bit rate mode : Constant
Bit rate : 96.0 kb/s
Channel(s) : 2 channels
Channel layout : L R
Sampling rate : 48.0 kHz
Frame rate : 46.875 FPS (1024 SPF)
Compression mode : Lossy
Stream size : 28.6 MiB (2%)
Default : Yes
Alternate group : 1

NWA Powerrr Episode 36

Complete name : NWA Powerrr Episode 36.mp4
Format : MPEG-4
Format profile : Base Media
Codec ID : isom
File size : 1.33 GiB
Duration : 41 min 30 s
Overall bit rate : 4 590 kb/s

Video
ID : 1
Format : AVC
Format/Info : Advanced Video
Duration : 41 min 30 s
Source duration : 41 min 30 s
Bit rate : 4 481 kb/s
Width : 1 920 pixels
Height : 1 080 pixels
Display aspect ratio : 16:9
Frame rate mode : Variable
Frame rate : 29.970 (29970/1000) FPS
Minimum frame rate : 11.628 FPS
Maximum frame rate : 30.303 FPS
Color space : YUV
Chroma subsampling : 4:2:0
Bit depth : 8 bits
Scan type : Progressive
Bits/(Pixel*Frame) : 0.072
Stream size : 1.30 GiB (98%)
Source stream size : 1.30 GiB (98%)
mdhd_Duration : 2490594
Codec configuration box : avc

NWA Powerrr Episode 36

Audio
ID : 2
Format : AAC LC
Format/Info : Advanced Audio
Codec ID : mp4a-40-2
Duration : 41 min 30 s
Bit rate mode : Constant
Bit rate : 96.0 kb/s
Channel(s) : 2 channels
Channel layout : L R
Sampling rate : 48.0 kHz
Frame rate : 46.875 FPS (1024 SPF)
Compression mode : Lossy
Stream size : 28.6 MiB (2%)
Default : Yes
Alternate group : 1

NWA Powerrr Episode 36

Complete name : NWA Powerrr Episode 36.mp4
Format : MPEG-4
Format profile : Base Media
Codec ID : isom
File size : 1.33 GiB
Duration : 41 min 30 s
Overall bit rate : 4 590 kb/s

Video
ID : 1
Format : AVC
Format/Info : Advanced Video
Duration : 41 min 30 s
Source duration : 41 min 30 s
Bit rate : 4 481 kb/s
Width : 1 920 pixels
Height : 1 080 pixels
Display aspect ratio : 16:9
Frame rate mode : Variable
Frame rate : 29.970 (29970/1000) FPS
Minimum frame rate : 11.628 FPS
Maximum frame rate : 30.303 FPS
Color space : YUV
Chroma subsampling : 4:2:0
Bit depth : 8 bits
Scan type : Progressive
Bits/(Pixel*Frame) : 0.072
Stream size : 1.30 GiB (98%)
Source stream size : 1.30 GiB (98%)
mdhd_Duration : 2490594
Codec configuration box : avc

NWA Powerrr Episode 36

Audio
ID : 2
Format : AAC LC
Format/Info : Advanced Audio
Codec ID : mp4a-40-2
Duration : 41 min 30 s
Bit rate mode : Constant
Bit rate : 96.0 kb/s
Channel(s) : 2 channels
Channel layout : L R
Sampling rate : 48.0 kHz
Frame rate : 46.875 FPS (1024 SPF)
Compression mode : Lossy
Stream size : 28.6 MiB (2%)
Default : Yes
Alternate group : 1

NWA Powerrr Episode 36

Complete name : NWA Powerrr Episode 36.mp4
Format : MPEG-4
Format profile : Base Media
Codec ID : isom
File size : 1.33 GiB
Duration : 41 min 30 s
Overall bit rate : 4 590 kb/s

Video
ID : 1
Format : AVC
Format/Info : Advanced Video
Duration : 41 min 30 s
Source duration : 41 min 30 s
Bit rate : 4 481 kb/s
Width : 1 920 pixels
Height : 1 080 pixels
Display aspect ratio : 16:9
Frame rate mode : Variable
Frame rate : 29.970 (29970/1000) FPS
Minimum frame rate : 11.628 FPS
Maximum frame rate : 30.303 FPS
Color space : YUV
Chroma subsampling : 4:2:0
Bit depth : 8 bits
Scan type : Progressive
Bits/(Pixel*Frame) : 0.072
Stream size : 1.30 GiB (98%)
Source stream size : 1.30 GiB (98%)
mdhd_Duration : 2490594
Codec configuration box : avc

NWA Powerrr Episode 36

Audio
ID : 2
Format : AAC LC
Format/Info : Advanced Audio
Codec ID : mp4a-40-2
Duration : 41 min 30 s
Bit rate mode : Constant
Bit rate : 96.0 kb/s
Channel(s) : 2 channels
Channel layout : L R
Sampling rate : 48.0 kHz
Frame rate : 46.875 FPS (1024 SPF)
Compression mode : Lossy
Stream size : 28.6 MiB (2%)
Default : Yes
Alternate group : 1

NWA Powerrr Episode 36

Complete name : NWA Powerrr Episode 36.mp4
Format : MPEG-4
Format profile : Base Media
Codec ID : isom
File size : 1.33 GiB
Duration : 41 min 30 s
Overall bit rate : 4 590 kb/s

Video
ID : 1
Format : AVC
Format/Info : Advanced Video
Duration : 41 min 30 s
Source duration : 41 min 30 s
Bit rate : 4 481 kb/s
Width : 1 920 pixels
Height : 1 080 pixels
Display aspect ratio : 16:9
Frame rate mode : Variable
Frame rate : 29.970 (29970/1000) FPS
Minimum frame rate : 11.628 FPS
Maximum frame rate : 30.303 FPS
Color space : YUV
Chroma subsampling : 4:2:0
Bit depth : 8 bits
Scan type : Progressive
Bits/(Pixel*Frame) : 0.072
Stream size : 1.30 GiB (98%)
Source stream size : 1.30 GiB (98%)
mdhd_Duration : 2490594
Codec configuration box : avc

NWA Powerrr Episode 36

Audio
ID : 2
Format : AAC LC
Format/Info : Advanced Audio
Codec ID : mp4a-40-2
Duration : 41 min 30 s
Bit rate mode : Constant
Bit rate : 96.0 kb/s
Channel(s) : 2 channels
Channel layout : L R
Sampling rate : 48.0 kHz
Frame rate : 46.875 FPS (1024 SPF)
Compression mode : Lossy
Stream size : 28.6 MiB (2%)
Default : Yes
Alternate group : 1

NWA Powerrr Episode 36

Complete name : NWA Powerrr Episode 36.mp4
Format : MPEG-4
Format profile : Base Media
Codec ID : isom
File size : 1.33 GiB
Duration : 41 min 30 s
Overall bit rate : 4 590 kb/s

Video
ID : 1
Format : AVC
Format/Info : Advanced Video
Duration : 41 min 30 s
Source duration : 41 min 30 s
Bit rate : 4 481 kb/s
Width : 1 920 pixels
Height : 1 080 pixels
Display aspect ratio : 16:9
Frame rate mode : Variable
Frame rate : 29.970 (29970/1000) FPS
Minimum frame rate : 11.628 FPS
Maximum frame rate : 30.303 FPS
Color space : YUV
Chroma subsampling : 4:2:0
Bit depth : 8 bits
Scan type : Progressive
Bits/(Pixel*Frame) : 0.072
Stream size : 1.30 GiB (98%)
Source stream size : 1.30 GiB (98%)
mdhd_Duration : 2490594
Codec configuration box : avc

NWA Powerrr Episode 36

Audio
ID : 2
Format : AAC LC
Format/Info : Advanced Audio
Codec ID : mp4a-40-2
Duration : 41 min 30 s
Bit rate mode : Constant
Bit rate : 96.0 kb/s
Channel(s) : 2 channels
Channel layout : L R
Sampling rate : 48.0 kHz
Frame rate : 46.875 FPS (1024 SPF)
Compression mode : Lossy
Stream size : 28.6 MiB (2%)
Default : Yes
Alternate group : 1

NWA Powerrr Episode 36

Complete name : NWA Powerrr Episode 36.mp4
Format : MPEG-4
Format profile : Base Media
Codec ID : isom
File size : 1.33 GiB
Duration : 41 min 30 s
Overall bit rate : 4 590 kb/s

Video
ID : 1
Format : AVC
Format/Info : Advanced Video
Duration : 41 min 30 s
Source duration : 41 min 30 s
Bit rate : 4 481 kb/s
Width : 1 920 pixels
Height : 1 080 pixels
Display aspect ratio : 16:9
Frame rate mode : Variable
Frame rate : 29.970 (29970/1000) FPS
Minimum frame rate : 11.628 FPS
Maximum frame rate : 30.303 FPS
Color space : YUV
Chroma subsampling : 4:2:0
Bit depth : 8 bits
Scan type : Progressive
Bits/(Pixel*Frame) : 0.072
Stream size : 1.30 GiB (98%)
Source stream size : 1.30 GiB (98%)
mdhd_Duration : 2490594
Codec configuration box : avc

NWA Powerrr Episode 36

Audio
ID : 2
Format : AAC LC
Format/Info : Advanced Audio
Codec ID : mp4a-40-2
Duration : 41 min 30 s
Bit rate mode : Constant
Bit rate : 96.0 kb/s
Channel(s) : 2 channels
Channel layout : L R
Sampling rate : 48.0 kHz
Frame rate : 46.875 FPS (1024 SPF)
Compression mode : Lossy
Stream size : 28.6 MiB (2%)
Default : Yes
Alternate group : 1

NWA Powerrr Episode 36

Complete name : NWA Powerrr Episode 36.mp4
Format : MPEG-4
Format profile : Base Media
Codec ID : isom
File size : 1.33 GiB
Duration : 41 min 30 s
Overall bit rate : 4 590 kb/s

Video
ID : 1
Format : AVC
Format/Info : Advanced Video
Duration : 41 min 30 s
Source duration : 41 min 30 s
Bit rate : 4 481 kb/s
Width : 1 920 pixels
Height : 1 080 pixels
Display aspect ratio : 16:9
Frame rate mode : Variable
Frame rate : 29.970 (29970/1000) FPS
Minimum frame rate : 11.628 FPS
Maximum frame rate : 30.303 FPS
Color space : YUV
Chroma subsampling : 4:2:0
Bit depth : 8 bits
Scan type : Progressive
Bits/(Pixel*Frame) : 0.072
Stream size : 1.30 GiB (98%)
Source stream size : 1.30 GiB (98%)
mdhd_Duration : 2490594
Codec configuration box : avc

NWA Powerrr Episode 36

Audio
ID : 2
Format : AAC LC
Format/Info : Advanced Audio
Codec ID : mp4a-40-2
Duration : 41 min 30 s
Bit rate mode : Constant
Bit rate : 96.0 kb/s
Channel(s) : 2 channels
Channel layout : L R
Sampling rate : 48.0 kHz
Frame rate : 46.875 FPS (1024 SPF)
Compression mode : Lossy
Stream size : 28.6 MiB (2%)
Default : Yes
Alternate group : 1

NWA Powerrr Episode 36

Complete name : NWA Powerrr Episode 36.mp4
Format : MPEG-4
Format profile : Base Media
Codec ID : isom
File size : 1.33 GiB
Duration : 41 min 30 s
Overall bit rate : 4 590 kb/s

Video
ID : 1
Format : AVC
Format/Info : Advanced Video
Duration : 41 min 30 s
Source duration : 41 min 30 s
Bit rate : 4 481 kb/s
Width : 1 920 pixels
Height : 1 080 pixels
Display aspect ratio : 16:9
Frame rate mode : Variable
Frame rate : 29.970 (29970/1000) FPS
Minimum frame rate : 11.628 FPS
Maximum frame rate : 30.303 FPS
Color space : YUV
Chroma subsampling : 4:2:0
Bit depth : 8 bits
Scan type : Progressive
Bits/(Pixel*Frame) : 0.072
Stream size : 1.30 GiB (98%)
Source stream size : 1.30 GiB (98%)
mdhd_Duration : 2490594
Codec configuration box : avc

NWA Powerrr Episode 36

Audio
ID : 2
Format : AAC LC
Format/Info : Advanced Audio
Codec ID : mp4a-40-2
Duration : 41 min 30 s
Bit rate mode : Constant
Bit rate : 96.0 kb/s
Channel(s) : 2 channels
Channel layout : L R
Sampling rate : 48.0 kHz
Frame rate : 46.875 FPS (1024 SPF)
Compression mode : Lossy
Stream size : 28.6 MiB (2%)
Default : Yes
Alternate group : 1

NWA Powerrr Episode 36

Complete name : NWA Powerrr Episode 36.mp4
Format : MPEG-4
Format profile : Base Media
Codec ID : isom
File size : 1.33 GiB
Duration : 41 min 30 s
Overall bit rate : 4 590 kb/s

Video
ID : 1
Format : AVC
Format/Info : Advanced Video
Duration : 41 min 30 s
Source duration : 41 min 30 s
Bit rate : 4 481 kb/s
Width : 1 920 pixels
Height : 1 080 pixels
Display aspect ratio : 16:9
Frame rate mode : Variable
Frame rate : 29.970 (29970/1000) FPS
Minimum frame rate : 11.628 FPS
Maximum frame rate : 30.303 FPS
Color space : YUV
Chroma subsampling : 4:2:0
Bit depth : 8 bits
Scan type : Progressive
Bits/(Pixel*Frame) : 0.072
Stream size : 1.30 GiB (98%)
Source stream size : 1.30 GiB (98%)
mdhd_Duration : 2490594
Codec configuration box : avc

NWA Powerrr Episode 36

Audio
ID : 2
Format : AAC LC
Format/Info : Advanced Audio
Codec ID : mp4a-40-2
Duration : 41 min 30 s
Bit rate mode : Constant
Bit rate : 96.0 kb/s
Channel(s) : 2 channels
Channel layout : L R
Sampling rate : 48.0 kHz
Frame rate : 46.875 FPS (1024 SPF)
Compression mode : Lossy
Stream size : 28.6 MiB (2%)
Default : Yes
Alternate group : 1

NWA Powerrr Episode 36

Complete name : NWA Powerrr Episode 36.mp4
Format : MPEG-4
Format profile : Base Media
Codec ID : isom
File size : 1.33 GiB
Duration : 41 min 30 s
Overall bit rate : 4 590 kb/s

Video
ID : 1
Format : AVC
Format/Info : Advanced Video
Duration : 41 min 30 s
Source duration : 41 min 30 s
Bit rate : 4 481 kb/s
Width : 1 920 pixels
Height : 1 080 pixels
Display aspect ratio : 16:9
Frame rate mode : Variable
Frame rate : 29.970 (29970/1000) FPS
Minimum frame rate : 11.628 FPS
Maximum frame rate : 30.303 FPS
Color space : YUV
Chroma subsampling : 4:2:0
Bit depth : 8 bits
Scan type : Progressive
Bits/(Pixel*Frame) : 0.072
Stream size : 1.30 GiB (98%)
Source stream size : 1.30 GiB (98%)
mdhd_Duration : 2490594
Codec configuration box : avc

NWA Powerrr Episode 36

Audio
ID : 2
Format : AAC LC
Format/Info : Advanced Audio
Codec ID : mp4a-40-2
Duration : 41 min 30 s
Bit rate mode : Constant
Bit rate : 96.0 kb/s
Channel(s) : 2 channels
Channel layout : L R
Sampling rate : 48.0 kHz
Frame rate : 46.875 FPS (1024 SPF)
Compression mode : Lossy
Stream size : 28.6 MiB (2%)
Default : Yes
Alternate group : 1

NWA Powerrr Episode 36

Complete name : NWA Powerrr Episode 36.mp4
Format : MPEG-4
Format profile : Base Media
Codec ID : isom
File size : 1.33 GiB
Duration : 41 min 30 s
Overall bit rate : 4 590 kb/s

Video
ID : 1
Format : AVC
Format/Info : Advanced Video
Duration : 41 min 30 s
Source duration : 41 min 30 s
Bit rate : 4 481 kb/s
Width : 1 920 pixels
Height : 1 080 pixels
Display aspect ratio : 16:9
Frame rate mode : Variable
Frame rate : 29.970 (29970/1000) FPS
Minimum frame rate : 11.628 FPS
Maximum frame rate : 30.303 FPS
Color space : YUV
Chroma subsampling : 4:2:0
Bit depth : 8 bits
Scan type : Progressive
Bits/(Pixel*Frame) : 0.072
Stream size : 1.30 GiB (98%)
Source stream size : 1.30 GiB (98%)
mdhd_Duration : 2490594
Codec configuration box : avc

NWA Powerrr Episode 36

Audio
ID : 2
Format : AAC LC
Format/Info : Advanced Audio
Codec ID : mp4a-40-2
Duration : 41 min 30 s
Bit rate mode : Constant
Bit rate : 96.0 kb/s
Channel(s) : 2 channels
Channel layout : L R
Sampling rate : 48.0 kHz
Frame rate : 46.875 FPS (1024 SPF)
Compression mode : Lossy
Stream size : 28.6 MiB (2%)
Default : Yes
Alternate group : 1

NWA Powerrr Episode 36

Complete name : NWA Powerrr Episode 36.mp4
Format : MPEG-4
Format profile : Base Media
Codec ID : isom
File size : 1.33 GiB
Duration : 41 min 30 s
Overall bit rate : 4 590 kb/s

Video
ID : 1
Format : AVC
Format/Info : Advanced Video
Duration : 41 min 30 s
Source duration : 41 min 30 s
Bit rate : 4 481 kb/s
Width : 1 920 pixels
Height : 1 080 pixels
Display aspect ratio : 16:9
Frame rate mode : Variable
Frame rate : 29.970 (29970/1000) FPS
Minimum frame rate : 11.628 FPS
Maximum frame rate : 30.303 FPS
Color space : YUV
Chroma subsampling : 4:2:0
Bit depth : 8 bits
Scan type : Progressive
Bits/(Pixel*Frame) : 0.072
Stream size : 1.30 GiB (98%)
Source stream size : 1.30 GiB (98%)
mdhd_Duration : 2490594
Codec configuration box : avc

NWA Powerrr Episode 36

Audio
ID : 2
Format : AAC LC
Format/Info : Advanced Audio
Codec ID : mp4a-40-2
Duration : 41 min 30 s
Bit rate mode : Constant
Bit rate : 96.0 kb/s
Channel(s) : 2 channels
Channel layout : L R
Sampling rate : 48.0 kHz
Frame rate : 46.875 FPS (1024 SPF)
Compression mode : Lossy
Stream size : 28.6 MiB (2%)
Default : Yes
Alternate group : 1

NWA Powerrr Episode 36

Complete name : NWA Powerrr Episode 36.mp4
Format : MPEG-4
Format profile : Base Media
Codec ID : isom
File size : 1.33 GiB
Duration : 41 min 30 s
Overall bit rate : 4 590 kb/s

Video
ID : 1
Format : AVC
Format/Info : Advanced Video
Duration : 41 min 30 s
Source duration : 41 min 30 s
Bit rate : 4 481 kb/s
Width : 1 920 pixels
Height : 1 080 pixels
Display aspect ratio : 16:9
Frame rate mode : Variable
Frame rate : 29.970 (29970/1000) FPS
Minimum frame rate : 11.628 FPS
Maximum frame rate : 30.303 FPS
Color space : YUV
Chroma subsampling : 4:2:0
Bit depth : 8 bits
Scan type : Progressive
Bits/(Pixel*Frame) : 0.072
Stream size : 1.30 GiB (98%)
Source stream size : 1.30 GiB (98%)
mdhd_Duration : 2490594
Codec configuration box : avc

NWA Powerrr Episode 36

Audio
ID : 2
Format : AAC LC
Format/Info : Advanced Audio
Codec ID : mp4a-40-2
Duration : 41 min 30 s
Bit rate mode : Constant
Bit rate : 96.0 kb/s
Channel(s) : 2 channels
Channel layout : L R
Sampling rate : 48.0 kHz
Frame rate : 46.875 FPS (1024 SPF)
Compression mode : Lossy
Stream size : 28.6 MiB (2%)
Default : Yes
Alternate group : 1

NWA Powerrr Episode 36

 

[collapse]

 

 

https://dx-tv.com/

Leave a Reply

Your email address will not be published. Required fields are marked *

This site uses Akismet to reduce spam. Learn how your comment data is processed.