NWA Powerrr Episode 33 Online Free Replay DX-TV

Contents show

NWA Powerrr Episode 33

 NWA Powerrr Episode 33

 

 

 

Download Links with premium High Speed


 

Dopapk

 

 

Show Links

 

http://shrt10.com/4a5sqRm

 

[collapse]

 

 

Nitroflare

 

 

Show Links

 

http://shrt10.com/XeoB7d3f

 

[collapse]

 

 

Rapidgator

 

 

Show Links

 

http://shrt10.com/nq1FFrUR

 

[collapse]

 

 

Uploaded

 

 

Show Links

 

http://shrt10.com/zE8bElQwv

 

[collapse]

 

 

Watch online

 

Server 1

 

 

 

 

NWA Powerrr Episode 33

 

 

 

 

Server-2

 

 

 

 

watch now

 

 

 

|Server-4

 

 

 

 

watch now

 

 

Uploaded By Site DX-TV.com

 

 

Show Info This Show

NWA Powerrr Episode 33

 

Complete name : NWA Powerrr Episode 33.mp4
Format : MPEG-4
Format profile : Base Media
Codec ID : isom
File size : 1.29 GiB
Duration : 48 min 48 s
Overall bit rate : 3 784 kb/s

Video
ID : 1
Format : AVC
Format/Info : Advanced Video
Duration : 48 min 48 s
Source duration : 48 min 48 s
Bit rate : 3 644 kb/s
Width : 1 920 pixels
Height : 1 080 pixels
Display aspect ratio : 16:9
Frame rate mode : Variable
Frame rate : 29.970 FPS
Minimum frame rate : 13.333 FPS
Maximum frame rate : 30.303 FPS
Color space : YUV
Chroma subsampling : 4:2:0
Bit depth : 8 bits
Scan type : Progressive
Bits/(Pixel*Frame) : 0.059
Stream size : 1.24 GiB (96%)
mdhd_Duration : 2928887
Codec configuration box : avcC

NWA Powerrr Episode 33

Audio
ID : 2
Format : AAC LC
Format/Info : Advanced Audio
Codec ID : mp4a-40-2
Duration : 48 min 48 s
Bit rate mode : Constant
Bit rate : 128 kb/s
Channel(s) : 2 channels
Channel layout : L R
Sampling rate : 48.0 kHz
Frame rate : 46.875 FPS (1024 SPF)
Compression mode : Lossy
Stream size : 44.6 MiB (3%)
Default : Yes
Alternate group : 1

NWA Powerrr Episode 33

Complete name : NWA Powerrr Episode 33.mp4
Format : MPEG-4
Format profile : Base Media
Codec ID : isom
File size : 1.29 GiB
Duration : 48 min 48 s
Overall bit rate : 3 784 kb/s

Video
ID : 1
Format : AVC
Format/Info : Advanced Video
Duration : 48 min 48 s
Source duration : 48 min 48 s
Bit rate : 3 644 kb/s
Width : 1 920 pixels
Height : 1 080 pixels
Display aspect ratio : 16:9
Frame rate mode : Variable
Frame rate : 29.970 FPS
Minimum frame rate : 13.333 FPS
Maximum frame rate : 30.303 FPS
Color space : YUV
Chroma subsampling : 4:2:0
Bit depth : 8 bits
Scan type : Progressive
Bits/(Pixel*Frame) : 0.059
Stream size : 1.24 GiB (96%)
mdhd_Duration : 2928887
Codec configuration box : avcC

NWA Powerrr Episode 33

Audio
ID : 2
Format : AAC LC
Format/Info : Advanced Audio
Codec ID : mp4a-40-2
Duration : 48 min 48 s
Bit rate mode : Constant
Bit rate : 128 kb/s
Channel(s) : 2 channels
Channel layout : L R
Sampling rate : 48.0 kHz
Frame rate : 46.875 FPS (1024 SPF)
Compression mode : Lossy
Stream size : 44.6 MiB (3%)
Default : Yes
Alternate group : 1

NWA Powerrr Episode 33

Complete name : NWA Powerrr Episode 33.mp4
Format : MPEG-4
Format profile : Base Media
Codec ID : isom
File size : 1.29 GiB
Duration : 48 min 48 s
Overall bit rate : 3 784 kb/s

Video
ID : 1
Format : AVC
Format/Info : Advanced Video
Duration : 48 min 48 s
Source duration : 48 min 48 s
Bit rate : 3 644 kb/s
Width : 1 920 pixels
Height : 1 080 pixels
Display aspect ratio : 16:9
Frame rate mode : Variable
Frame rate : 29.970 FPS
Minimum frame rate : 13.333 FPS
Maximum frame rate : 30.303 FPS
Color space : YUV
Chroma subsampling : 4:2:0
Bit depth : 8 bits
Scan type : Progressive
Bits/(Pixel*Frame) : 0.059
Stream size : 1.24 GiB (96%)
mdhd_Duration : 2928887
Codec configuration box : avcC

NWA Powerrr Episode 33

Audio
ID : 2
Format : AAC LC
Format/Info : Advanced Audio
Codec ID : mp4a-40-2
Duration : 48 min 48 s
Bit rate mode : Constant
Bit rate : 128 kb/s
Channel(s) : 2 channels
Channel layout : L R
Sampling rate : 48.0 kHz
Frame rate : 46.875 FPS (1024 SPF)
Compression mode : Lossy
Stream size : 44.6 MiB (3%)
Default : Yes
Alternate group : 1

NWA Powerrr Episode 33

Complete name : NWA Powerrr Episode 33.mp4
Format : MPEG-4
Format profile : Base Media
Codec ID : isom
File size : 1.29 GiB
Duration : 48 min 48 s
Overall bit rate : 3 784 kb/s

Video
ID : 1
Format : AVC
Format/Info : Advanced Video
Duration : 48 min 48 s
Source duration : 48 min 48 s
Bit rate : 3 644 kb/s
Width : 1 920 pixels
Height : 1 080 pixels
Display aspect ratio : 16:9
Frame rate mode : Variable
Frame rate : 29.970 FPS
Minimum frame rate : 13.333 FPS
Maximum frame rate : 30.303 FPS
Color space : YUV
Chroma subsampling : 4:2:0
Bit depth : 8 bits
Scan type : Progressive
Bits/(Pixel*Frame) : 0.059
Stream size : 1.24 GiB (96%)
mdhd_Duration : 2928887
Codec configuration box : avcC

NWA Powerrr Episode 33

Audio
ID : 2
Format : AAC LC
Format/Info : Advanced Audio
Codec ID : mp4a-40-2
Duration : 48 min 48 s
Bit rate mode : Constant
Bit rate : 128 kb/s
Channel(s) : 2 channels
Channel layout : L R
Sampling rate : 48.0 kHz
Frame rate : 46.875 FPS (1024 SPF)
Compression mode : Lossy
Stream size : 44.6 MiB (3%)
Default : Yes
Alternate group : 1

NWA Powerrr Episode 33

Complete name : NWA Powerrr Episode 33.mp4
Format : MPEG-4
Format profile : Base Media
Codec ID : isom
File size : 1.29 GiB
Duration : 48 min 48 s
Overall bit rate : 3 784 kb/s

Video
ID : 1
Format : AVC
Format/Info : Advanced Video
Duration : 48 min 48 s
Source duration : 48 min 48 s
Bit rate : 3 644 kb/s
Width : 1 920 pixels
Height : 1 080 pixels
Display aspect ratio : 16:9
Frame rate mode : Variable
Frame rate : 29.970 FPS
Minimum frame rate : 13.333 FPS
Maximum frame rate : 30.303 FPS
Color space : YUV
Chroma subsampling : 4:2:0
Bit depth : 8 bits
Scan type : Progressive
Bits/(Pixel*Frame) : 0.059
Stream size : 1.24 GiB (96%)
mdhd_Duration : 2928887
Codec configuration box : avcC

NWA Powerrr Episode 33

Audio
ID : 2
Format : AAC LC
Format/Info : Advanced Audio
Codec ID : mp4a-40-2
Duration : 48 min 48 s
Bit rate mode : Constant
Bit rate : 128 kb/s
Channel(s) : 2 channels
Channel layout : L R
Sampling rate : 48.0 kHz
Frame rate : 46.875 FPS (1024 SPF)
Compression mode : Lossy
Stream size : 44.6 MiB (3%)
Default : Yes
Alternate group : 1

NWA Powerrr Episode 33

Complete name : NWA Powerrr Episode 33.mp4
Format : MPEG-4
Format profile : Base Media
Codec ID : isom
File size : 1.29 GiB
Duration : 48 min 48 s
Overall bit rate : 3 784 kb/s

Video
ID : 1
Format : AVC
Format/Info : Advanced Video
Duration : 48 min 48 s
Source duration : 48 min 48 s
Bit rate : 3 644 kb/s
Width : 1 920 pixels
Height : 1 080 pixels
Display aspect ratio : 16:9
Frame rate mode : Variable
Frame rate : 29.970 FPS
Minimum frame rate : 13.333 FPS
Maximum frame rate : 30.303 FPS
Color space : YUV
Chroma subsampling : 4:2:0
Bit depth : 8 bits
Scan type : Progressive
Bits/(Pixel*Frame) : 0.059
Stream size : 1.24 GiB (96%)
mdhd_Duration : 2928887
Codec configuration box : avcC

NWA Powerrr Episode 33

Audio
ID : 2
Format : AAC LC
Format/Info : Advanced Audio
Codec ID : mp4a-40-2
Duration : 48 min 48 s
Bit rate mode : Constant
Bit rate : 128 kb/s
Channel(s) : 2 channels
Channel layout : L R
Sampling rate : 48.0 kHz
Frame rate : 46.875 FPS (1024 SPF)
Compression mode : Lossy
Stream size : 44.6 MiB (3%)
Default : Yes
Alternate group : 1

NWA Powerrr Episode 33

Complete name : NWA Powerrr Episode 33.mp4
Format : MPEG-4
Format profile : Base Media
Codec ID : isom
File size : 1.29 GiB
Duration : 48 min 48 s
Overall bit rate : 3 784 kb/s

Video
ID : 1
Format : AVC
Format/Info : Advanced Video
Duration : 48 min 48 s
Source duration : 48 min 48 s
Bit rate : 3 644 kb/s
Width : 1 920 pixels
Height : 1 080 pixels
Display aspect ratio : 16:9
Frame rate mode : Variable
Frame rate : 29.970 FPS
Minimum frame rate : 13.333 FPS
Maximum frame rate : 30.303 FPS
Color space : YUV
Chroma subsampling : 4:2:0
Bit depth : 8 bits
Scan type : Progressive
Bits/(Pixel*Frame) : 0.059
Stream size : 1.24 GiB (96%)
mdhd_Duration : 2928887
Codec configuration box : avcC

NWA Powerrr Episode 33

Audio
ID : 2
Format : AAC LC
Format/Info : Advanced Audio
Codec ID : mp4a-40-2
Duration : 48 min 48 s
Bit rate mode : Constant
Bit rate : 128 kb/s
Channel(s) : 2 channels
Channel layout : L R
Sampling rate : 48.0 kHz
Frame rate : 46.875 FPS (1024 SPF)
Compression mode : Lossy
Stream size : 44.6 MiB (3%)
Default : Yes
Alternate group : 1

NWA Powerrr Episode 33

Complete name : NWA Powerrr Episode 33.mp4
Format : MPEG-4
Format profile : Base Media
Codec ID : isom
File size : 1.29 GiB
Duration : 48 min 48 s
Overall bit rate : 3 784 kb/s

Video
ID : 1
Format : AVC
Format/Info : Advanced Video
Duration : 48 min 48 s
Source duration : 48 min 48 s
Bit rate : 3 644 kb/s
Width : 1 920 pixels
Height : 1 080 pixels
Display aspect ratio : 16:9
Frame rate mode : Variable
Frame rate : 29.970 FPS
Minimum frame rate : 13.333 FPS
Maximum frame rate : 30.303 FPS
Color space : YUV
Chroma subsampling : 4:2:0
Bit depth : 8 bits
Scan type : Progressive
Bits/(Pixel*Frame) : 0.059
Stream size : 1.24 GiB (96%)
mdhd_Duration : 2928887
Codec configuration box : avcC

NWA Powerrr Episode 33

Audio
ID : 2
Format : AAC LC
Format/Info : Advanced Audio
Codec ID : mp4a-40-2
Duration : 48 min 48 s
Bit rate mode : Constant
Bit rate : 128 kb/s
Channel(s) : 2 channels
Channel layout : L R
Sampling rate : 48.0 kHz
Frame rate : 46.875 FPS (1024 SPF)
Compression mode : Lossy
Stream size : 44.6 MiB (3%)
Default : Yes
Alternate group : 1

NWA Powerrr Episode 33

Complete name : NWA Powerrr Episode 33.mp4
Format : MPEG-4
Format profile : Base Media
Codec ID : isom
File size : 1.29 GiB
Duration : 48 min 48 s
Overall bit rate : 3 784 kb/s

Video
ID : 1
Format : AVC
Format/Info : Advanced Video
Duration : 48 min 48 s
Source duration : 48 min 48 s
Bit rate : 3 644 kb/s
Width : 1 920 pixels
Height : 1 080 pixels
Display aspect ratio : 16:9
Frame rate mode : Variable
Frame rate : 29.970 FPS
Minimum frame rate : 13.333 FPS
Maximum frame rate : 30.303 FPS
Color space : YUV
Chroma subsampling : 4:2:0
Bit depth : 8 bits
Scan type : Progressive
Bits/(Pixel*Frame) : 0.059
Stream size : 1.24 GiB (96%)
mdhd_Duration : 2928887
Codec configuration box : avcC

NWA Powerrr Episode 33

Audio
ID : 2
Format : AAC LC
Format/Info : Advanced Audio
Codec ID : mp4a-40-2
Duration : 48 min 48 s
Bit rate mode : Constant
Bit rate : 128 kb/s
Channel(s) : 2 channels
Channel layout : L R
Sampling rate : 48.0 kHz
Frame rate : 46.875 FPS (1024 SPF)
Compression mode : Lossy
Stream size : 44.6 MiB (3%)
Default : Yes
Alternate group : 1

NWA Powerrr Episode 33

Complete name : NWA Powerrr Episode 33.mp4
Format : MPEG-4
Format profile : Base Media
Codec ID : isom
File size : 1.29 GiB
Duration : 48 min 48 s
Overall bit rate : 3 784 kb/s

Video
ID : 1
Format : AVC
Format/Info : Advanced Video
Duration : 48 min 48 s
Source duration : 48 min 48 s
Bit rate : 3 644 kb/s
Width : 1 920 pixels
Height : 1 080 pixels
Display aspect ratio : 16:9
Frame rate mode : Variable
Frame rate : 29.970 FPS
Minimum frame rate : 13.333 FPS
Maximum frame rate : 30.303 FPS
Color space : YUV
Chroma subsampling : 4:2:0
Bit depth : 8 bits
Scan type : Progressive
Bits/(Pixel*Frame) : 0.059
Stream size : 1.24 GiB (96%)
mdhd_Duration : 2928887
Codec configuration box : avcC

NWA Powerrr Episode 33

Audio
ID : 2
Format : AAC LC
Format/Info : Advanced Audio
Codec ID : mp4a-40-2
Duration : 48 min 48 s
Bit rate mode : Constant
Bit rate : 128 kb/s
Channel(s) : 2 channels
Channel layout : L R
Sampling rate : 48.0 kHz
Frame rate : 46.875 FPS (1024 SPF)
Compression mode : Lossy
Stream size : 44.6 MiB (3%)
Default : Yes
Alternate group : 1

NWA Powerrr Episode 33

Complete name : NWA Powerrr Episode 33.mp4
Format : MPEG-4
Format profile : Base Media
Codec ID : isom
File size : 1.29 GiB
Duration : 48 min 48 s
Overall bit rate : 3 784 kb/s

Video
ID : 1
Format : AVC
Format/Info : Advanced Video
Duration : 48 min 48 s
Source duration : 48 min 48 s
Bit rate : 3 644 kb/s
Width : 1 920 pixels
Height : 1 080 pixels
Display aspect ratio : 16:9
Frame rate mode : Variable
Frame rate : 29.970 FPS
Minimum frame rate : 13.333 FPS
Maximum frame rate : 30.303 FPS
Color space : YUV
Chroma subsampling : 4:2:0
Bit depth : 8 bits
Scan type : Progressive
Bits/(Pixel*Frame) : 0.059
Stream size : 1.24 GiB (96%)
mdhd_Duration : 2928887
Codec configuration box : avcC

NWA Powerrr Episode 33

Audio
ID : 2
Format : AAC LC
Format/Info : Advanced Audio
Codec ID : mp4a-40-2
Duration : 48 min 48 s
Bit rate mode : Constant
Bit rate : 128 kb/s
Channel(s) : 2 channels
Channel layout : L R
Sampling rate : 48.0 kHz
Frame rate : 46.875 FPS (1024 SPF)
Compression mode : Lossy
Stream size : 44.6 MiB (3%)
Default : Yes
Alternate group : 1

NWA Powerrr Episode 33

Complete name : NWA Powerrr Episode 33.mp4
Format : MPEG-4
Format profile : Base Media
Codec ID : isom
File size : 1.29 GiB
Duration : 48 min 48 s
Overall bit rate : 3 784 kb/s

Video
ID : 1
Format : AVC
Format/Info : Advanced Video
Duration : 48 min 48 s
Source duration : 48 min 48 s
Bit rate : 3 644 kb/s
Width : 1 920 pixels
Height : 1 080 pixels
Display aspect ratio : 16:9
Frame rate mode : Variable
Frame rate : 29.970 FPS
Minimum frame rate : 13.333 FPS
Maximum frame rate : 30.303 FPS
Color space : YUV
Chroma subsampling : 4:2:0
Bit depth : 8 bits
Scan type : Progressive
Bits/(Pixel*Frame) : 0.059
Stream size : 1.24 GiB (96%)
mdhd_Duration : 2928887
Codec configuration box : avcC

NWA Powerrr Episode 33

Audio
ID : 2
Format : AAC LC
Format/Info : Advanced Audio
Codec ID : mp4a-40-2
Duration : 48 min 48 s
Bit rate mode : Constant
Bit rate : 128 kb/s
Channel(s) : 2 channels
Channel layout : L R
Sampling rate : 48.0 kHz
Frame rate : 46.875 FPS (1024 SPF)
Compression mode : Lossy
Stream size : 44.6 MiB (3%)
Default : Yes
Alternate group : 1

NWA Powerrr Episode 33

Complete name : NWA Powerrr Episode 33.mp4
Format : MPEG-4
Format profile : Base Media
Codec ID : isom
File size : 1.29 GiB
Duration : 48 min 48 s
Overall bit rate : 3 784 kb/s

Video
ID : 1
Format : AVC
Format/Info : Advanced Video
Duration : 48 min 48 s
Source duration : 48 min 48 s
Bit rate : 3 644 kb/s
Width : 1 920 pixels
Height : 1 080 pixels
Display aspect ratio : 16:9
Frame rate mode : Variable
Frame rate : 29.970 FPS
Minimum frame rate : 13.333 FPS
Maximum frame rate : 30.303 FPS
Color space : YUV
Chroma subsampling : 4:2:0
Bit depth : 8 bits
Scan type : Progressive
Bits/(Pixel*Frame) : 0.059
Stream size : 1.24 GiB (96%)
mdhd_Duration : 2928887
Codec configuration box : avcC

NWA Powerrr Episode 33

Audio
ID : 2
Format : AAC LC
Format/Info : Advanced Audio
Codec ID : mp4a-40-2
Duration : 48 min 48 s
Bit rate mode : Constant
Bit rate : 128 kb/s
Channel(s) : 2 channels
Channel layout : L R
Sampling rate : 48.0 kHz
Frame rate : 46.875 FPS (1024 SPF)
Compression mode : Lossy
Stream size : 44.6 MiB (3%)
Default : Yes
Alternate group : 1

NWA Powerrr Episode 33

Complete name : NWA Powerrr Episode 33.mp4
Format : MPEG-4
Format profile : Base Media
Codec ID : isom
File size : 1.29 GiB
Duration : 48 min 48 s
Overall bit rate : 3 784 kb/s

Video
ID : 1
Format : AVC
Format/Info : Advanced Video
Duration : 48 min 48 s
Source duration : 48 min 48 s
Bit rate : 3 644 kb/s
Width : 1 920 pixels
Height : 1 080 pixels
Display aspect ratio : 16:9
Frame rate mode : Variable
Frame rate : 29.970 FPS
Minimum frame rate : 13.333 FPS
Maximum frame rate : 30.303 FPS
Color space : YUV
Chroma subsampling : 4:2:0
Bit depth : 8 bits
Scan type : Progressive
Bits/(Pixel*Frame) : 0.059
Stream size : 1.24 GiB (96%)
mdhd_Duration : 2928887
Codec configuration box : avcC

NWA Powerrr Episode 33

Audio
ID : 2
Format : AAC LC
Format/Info : Advanced Audio
Codec ID : mp4a-40-2
Duration : 48 min 48 s
Bit rate mode : Constant
Bit rate : 128 kb/s
Channel(s) : 2 channels
Channel layout : L R
Sampling rate : 48.0 kHz
Frame rate : 46.875 FPS (1024 SPF)
Compression mode : Lossy
Stream size : 44.6 MiB (3%)
Default : Yes
Alternate group : 1

NWA Powerrr Episode 33

Complete name : NWA Powerrr Episode 33.mp4
Format : MPEG-4
Format profile : Base Media
Codec ID : isom
File size : 1.29 GiB
Duration : 48 min 48 s
Overall bit rate : 3 784 kb/s

Video
ID : 1
Format : AVC
Format/Info : Advanced Video
Duration : 48 min 48 s
Source duration : 48 min 48 s
Bit rate : 3 644 kb/s
Width : 1 920 pixels
Height : 1 080 pixels
Display aspect ratio : 16:9
Frame rate mode : Variable
Frame rate : 29.970 FPS
Minimum frame rate : 13.333 FPS
Maximum frame rate : 30.303 FPS
Color space : YUV
Chroma subsampling : 4:2:0
Bit depth : 8 bits
Scan type : Progressive
Bits/(Pixel*Frame) : 0.059
Stream size : 1.24 GiB (96%)
mdhd_Duration : 2928887
Codec configuration box : avcC

NWA Powerrr Episode 33

Audio
ID : 2
Format : AAC LC
Format/Info : Advanced Audio
Codec ID : mp4a-40-2
Duration : 48 min 48 s
Bit rate mode : Constant
Bit rate : 128 kb/s
Channel(s) : 2 channels
Channel layout : L R
Sampling rate : 48.0 kHz
Frame rate : 46.875 FPS (1024 SPF)
Compression mode : Lossy
Stream size : 44.6 MiB (3%)
Default : Yes
Alternate group : 1

NWA Powerrr Episode 33

Complete name : NWA Powerrr Episode 33.mp4
Format : MPEG-4
Format profile : Base Media
Codec ID : isom
File size : 1.29 GiB
Duration : 48 min 48 s
Overall bit rate : 3 784 kb/s

Video
ID : 1
Format : AVC
Format/Info : Advanced Video
Duration : 48 min 48 s
Source duration : 48 min 48 s
Bit rate : 3 644 kb/s
Width : 1 920 pixels
Height : 1 080 pixels
Display aspect ratio : 16:9
Frame rate mode : Variable
Frame rate : 29.970 FPS
Minimum frame rate : 13.333 FPS
Maximum frame rate : 30.303 FPS
Color space : YUV
Chroma subsampling : 4:2:0
Bit depth : 8 bits
Scan type : Progressive
Bits/(Pixel*Frame) : 0.059
Stream size : 1.24 GiB (96%)
mdhd_Duration : 2928887
Codec configuration box : avcC

NWA Powerrr Episode 33

Audio
ID : 2
Format : AAC LC
Format/Info : Advanced Audio
Codec ID : mp4a-40-2
Duration : 48 min 48 s
Bit rate mode : Constant
Bit rate : 128 kb/s
Channel(s) : 2 channels
Channel layout : L R
Sampling rate : 48.0 kHz
Frame rate : 46.875 FPS (1024 SPF)
Compression mode : Lossy
Stream size : 44.6 MiB (3%)
Default : Yes
Alternate group : 1

NWA Powerrr Episode 33

Complete name : NWA Powerrr Episode 33.mp4
Format : MPEG-4
Format profile : Base Media
Codec ID : isom
File size : 1.29 GiB
Duration : 48 min 48 s
Overall bit rate : 3 784 kb/s

Video
ID : 1
Format : AVC
Format/Info : Advanced Video
Duration : 48 min 48 s
Source duration : 48 min 48 s
Bit rate : 3 644 kb/s
Width : 1 920 pixels
Height : 1 080 pixels
Display aspect ratio : 16:9
Frame rate mode : Variable
Frame rate : 29.970 FPS
Minimum frame rate : 13.333 FPS
Maximum frame rate : 30.303 FPS
Color space : YUV
Chroma subsampling : 4:2:0
Bit depth : 8 bits
Scan type : Progressive
Bits/(Pixel*Frame) : 0.059
Stream size : 1.24 GiB (96%)
mdhd_Duration : 2928887
Codec configuration box : avcC

NWA Powerrr Episode 33

Audio
ID : 2
Format : AAC LC
Format/Info : Advanced Audio
Codec ID : mp4a-40-2
Duration : 48 min 48 s
Bit rate mode : Constant
Bit rate : 128 kb/s
Channel(s) : 2 channels
Channel layout : L R
Sampling rate : 48.0 kHz
Frame rate : 46.875 FPS (1024 SPF)
Compression mode : Lossy
Stream size : 44.6 MiB (3%)
Default : Yes
Alternate group : 1

NWA Powerrr Episode 33

Complete name : NWA Powerrr Episode 33.mp4
Format : MPEG-4
Format profile : Base Media
Codec ID : isom
File size : 1.29 GiB
Duration : 48 min 48 s
Overall bit rate : 3 784 kb/s

Video
ID : 1
Format : AVC
Format/Info : Advanced Video
Duration : 48 min 48 s
Source duration : 48 min 48 s
Bit rate : 3 644 kb/s
Width : 1 920 pixels
Height : 1 080 pixels
Display aspect ratio : 16:9
Frame rate mode : Variable
Frame rate : 29.970 FPS
Minimum frame rate : 13.333 FPS
Maximum frame rate : 30.303 FPS
Color space : YUV
Chroma subsampling : 4:2:0
Bit depth : 8 bits
Scan type : Progressive
Bits/(Pixel*Frame) : 0.059
Stream size : 1.24 GiB (96%)
mdhd_Duration : 2928887
Codec configuration box : avcC

NWA Powerrr Episode 33

Audio
ID : 2
Format : AAC LC
Format/Info : Advanced Audio
Codec ID : mp4a-40-2
Duration : 48 min 48 s
Bit rate mode : Constant
Bit rate : 128 kb/s
Channel(s) : 2 channels
Channel layout : L R
Sampling rate : 48.0 kHz
Frame rate : 46.875 FPS (1024 SPF)
Compression mode : Lossy
Stream size : 44.6 MiB (3%)
Default : Yes
Alternate group : 1

NWA Powerrr Episode 33

Complete name : NWA Powerrr Episode 33.mp4
Format : MPEG-4
Format profile : Base Media
Codec ID : isom
File size : 1.29 GiB
Duration : 48 min 48 s
Overall bit rate : 3 784 kb/s

Video
ID : 1
Format : AVC
Format/Info : Advanced Video
Duration : 48 min 48 s
Source duration : 48 min 48 s
Bit rate : 3 644 kb/s
Width : 1 920 pixels
Height : 1 080 pixels
Display aspect ratio : 16:9
Frame rate mode : Variable
Frame rate : 29.970 FPS
Minimum frame rate : 13.333 FPS
Maximum frame rate : 30.303 FPS
Color space : YUV
Chroma subsampling : 4:2:0
Bit depth : 8 bits
Scan type : Progressive
Bits/(Pixel*Frame) : 0.059
Stream size : 1.24 GiB (96%)
mdhd_Duration : 2928887
Codec configuration box : avcC

NWA Powerrr Episode 33

Audio
ID : 2
Format : AAC LC
Format/Info : Advanced Audio
Codec ID : mp4a-40-2
Duration : 48 min 48 s
Bit rate mode : Constant
Bit rate : 128 kb/s
Channel(s) : 2 channels
Channel layout : L R
Sampling rate : 48.0 kHz
Frame rate : 46.875 FPS (1024 SPF)
Compression mode : Lossy
Stream size : 44.6 MiB (3%)
Default : Yes
Alternate group : 1

NWA Powerrr Episode 33

Complete name : NWA Powerrr Episode 33.mp4
Format : MPEG-4
Format profile : Base Media
Codec ID : isom
File size : 1.29 GiB
Duration : 48 min 48 s
Overall bit rate : 3 784 kb/s

Video
ID : 1
Format : AVC
Format/Info : Advanced Video
Duration : 48 min 48 s
Source duration : 48 min 48 s
Bit rate : 3 644 kb/s
Width : 1 920 pixels
Height : 1 080 pixels
Display aspect ratio : 16:9
Frame rate mode : Variable
Frame rate : 29.970 FPS
Minimum frame rate : 13.333 FPS
Maximum frame rate : 30.303 FPS
Color space : YUV
Chroma subsampling : 4:2:0
Bit depth : 8 bits
Scan type : Progressive
Bits/(Pixel*Frame) : 0.059
Stream size : 1.24 GiB (96%)
mdhd_Duration : 2928887
Codec configuration box : avcC

NWA Powerrr Episode 33

Audio
ID : 2
Format : AAC LC
Format/Info : Advanced Audio
Codec ID : mp4a-40-2
Duration : 48 min 48 s
Bit rate mode : Constant
Bit rate : 128 kb/s
Channel(s) : 2 channels
Channel layout : L R
Sampling rate : 48.0 kHz
Frame rate : 46.875 FPS (1024 SPF)
Compression mode : Lossy
Stream size : 44.6 MiB (3%)
Default : Yes
Alternate group : 1

NWA Powerrr Episode 33

Complete name : NWA Powerrr Episode 33.mp4
Format : MPEG-4
Format profile : Base Media
Codec ID : isom
File size : 1.29 GiB
Duration : 48 min 48 s
Overall bit rate : 3 784 kb/s

Video
ID : 1
Format : AVC
Format/Info : Advanced Video
Duration : 48 min 48 s
Source duration : 48 min 48 s
Bit rate : 3 644 kb/s
Width : 1 920 pixels
Height : 1 080 pixels
Display aspect ratio : 16:9
Frame rate mode : Variable
Frame rate : 29.970 FPS
Minimum frame rate : 13.333 FPS
Maximum frame rate : 30.303 FPS
Color space : YUV
Chroma subsampling : 4:2:0
Bit depth : 8 bits
Scan type : Progressive
Bits/(Pixel*Frame) : 0.059
Stream size : 1.24 GiB (96%)
mdhd_Duration : 2928887
Codec configuration box : avcC

NWA Powerrr Episode 33

Audio
ID : 2
Format : AAC LC
Format/Info : Advanced Audio
Codec ID : mp4a-40-2
Duration : 48 min 48 s
Bit rate mode : Constant
Bit rate : 128 kb/s
Channel(s) : 2 channels
Channel layout : L R
Sampling rate : 48.0 kHz
Frame rate : 46.875 FPS (1024 SPF)
Compression mode : Lossy
Stream size : 44.6 MiB (3%)
Default : Yes
Alternate group : 1

NWA Powerrr Episode 33

Complete name : NWA Powerrr Episode 33.mp4
Format : MPEG-4
Format profile : Base Media
Codec ID : isom
File size : 1.29 GiB
Duration : 48 min 48 s
Overall bit rate : 3 784 kb/s

Video
ID : 1
Format : AVC
Format/Info : Advanced Video
Duration : 48 min 48 s
Source duration : 48 min 48 s
Bit rate : 3 644 kb/s
Width : 1 920 pixels
Height : 1 080 pixels
Display aspect ratio : 16:9
Frame rate mode : Variable
Frame rate : 29.970 FPS
Minimum frame rate : 13.333 FPS
Maximum frame rate : 30.303 FPS
Color space : YUV
Chroma subsampling : 4:2:0
Bit depth : 8 bits
Scan type : Progressive
Bits/(Pixel*Frame) : 0.059
Stream size : 1.24 GiB (96%)
mdhd_Duration : 2928887
Codec configuration box : avcC

NWA Powerrr Episode 33

Audio
ID : 2
Format : AAC LC
Format/Info : Advanced Audio
Codec ID : mp4a-40-2
Duration : 48 min 48 s
Bit rate mode : Constant
Bit rate : 128 kb/s
Channel(s) : 2 channels
Channel layout : L R
Sampling rate : 48.0 kHz
Frame rate : 46.875 FPS (1024 SPF)
Compression mode : Lossy
Stream size : 44.6 MiB (3%)
Default : Yes
Alternate group : 1

NWA Powerrr Episode 33

Complete name : NWA Powerrr Episode 33.mp4
Format : MPEG-4
Format profile : Base Media
Codec ID : isom
File size : 1.29 GiB
Duration : 48 min 48 s
Overall bit rate : 3 784 kb/s

Video
ID : 1
Format : AVC
Format/Info : Advanced Video
Duration : 48 min 48 s
Source duration : 48 min 48 s
Bit rate : 3 644 kb/s
Width : 1 920 pixels
Height : 1 080 pixels
Display aspect ratio : 16:9
Frame rate mode : Variable
Frame rate : 29.970 FPS
Minimum frame rate : 13.333 FPS
Maximum frame rate : 30.303 FPS
Color space : YUV
Chroma subsampling : 4:2:0
Bit depth : 8 bits
Scan type : Progressive
Bits/(Pixel*Frame) : 0.059
Stream size : 1.24 GiB (96%)
mdhd_Duration : 2928887
Codec configuration box : avcC

NWA Powerrr Episode 33

Audio
ID : 2
Format : AAC LC
Format/Info : Advanced Audio
Codec ID : mp4a-40-2
Duration : 48 min 48 s
Bit rate mode : Constant
Bit rate : 128 kb/s
Channel(s) : 2 channels
Channel layout : L R
Sampling rate : 48.0 kHz
Frame rate : 46.875 FPS (1024 SPF)
Compression mode : Lossy
Stream size : 44.6 MiB (3%)
Default : Yes
Alternate group : 1

NWA Powerrr Episode 33

 

[collapse]

 

 

https://dx-tv.com/

Leave a Reply

Your email address will not be published. Required fields are marked *

This site uses Akismet to reduce spam. Learn how your comment data is processed.

Previous Post
AEW DARK -

AEW DARK Free 29th June 2021 720p Online

Next Post
ICW GOTTA EARN IT IN THE PIT

ICW Wrestling GOTTA EARN IT IN THE PIT Online Free